<?xml version="1.0" standalone="no"?>
<!DOCTYPE svg PUBLIC "-//W3C//DTD SVG 1.1//EN" "http://www.w3.org/Graphics/SVG/1.1/DTD/svg11.dtd" >
<svg xmlns="http://www.w3.org/2000/svg">
<metadata>
This is a custom SVG webfont generated by Font Squirrel.
Copyright   : Copyright c 2003 by Bitstream Inc All Rights ReservedDejaVu changes are in public domain
Foundry     : DejaVu fonts team
Foundry URL : httpdejavusourceforgenet
</metadata>
<defs>
<font id="DejaVuSansMonoBook" horiz-adv-x="1233" >
<font-face units-per-em="2048" ascent="1556" descent="-492" />
<missing-glyph horiz-adv-x="500" />
<glyph unicode=" " />
<glyph unicode="!" d="M516 0v254h203v-254h-203zM516 838v655h203v-655l-21 -357h-161z" />
<glyph unicode="&#x22;" d="M338 938v555h174v-555h-174zM721 938v555h174v-555h-174z" />
<glyph unicode="#" d="M2 414v153h297l84 334h-266v154h303l104 415h160l-104 -415h245l105 415h160l-105 -415h244v-154h-281l-84 -334h250v-153h-289l-104 -414h-160l105 414h-246l-105 -414h-159l104 414h-258zM459 567h246l83 334h-245z" />
<glyph unicode="$" d="M190 92v180q100 -62 201.5 -95t200.5 -35v458q-200 31 -301 122t-101 241q0 157 105.5 250.5t296.5 107.5v235h100l1 -235q79 -5 160 -20t165 -41v-173q-85 43 -165.5 66.5t-160.5 27.5v-431q206 -31 314 -128t108 -251t-116.5 -257t-304.5 -112l-1 -303h-100l-1 301 q-102 5 -202.5 28t-198.5 64zM371 973q0 -86 54.5 -136t166.5 -67v413q-104 -4 -162.5 -60t-58.5 -150zM692 146q110 3 172 61t62 158q0 93 -56 144.5t-178 70.5v-434z" />
<glyph unicode="%" d="M33 1112q0 135 92 227.5t227 92.5q64 0 122.5 -24t103.5 -69t69.5 -103.5t24.5 -123.5q0 -134 -93 -226.5t-227 -92.5q-135 0 -227 92t-92 227zM86 561l1042 418l41 -96l-1048 -418zM168 1112q0 -79 52.5 -131.5t131.5 -52.5q77 0 131 53.5t54 130.5t-54 130.5t-131 53.5 t-130.5 -53t-53.5 -131zM561 319q0 135 92 227.5t226 92.5q64 0 121.5 -24t103.5 -70q46 -47 71 -105t25 -121q0 -133 -93 -226t-228 -93q-136 0 -227 91.5t-91 227.5zM696 319q0 -78 52.5 -131t130.5 -53q77 0 130.5 53.5t53.5 130.5t-54 131t-130 54q-78 0 -130.5 -53 t-52.5 -132z" />
<glyph unicode="&#x26;" d="M57 444q0 137 69 254t208 217q-50 72 -74 141t-24 140q0 150 99.5 237t272.5 87q65 0 130.5 -12t135.5 -35v-183q-59 39 -121.5 57.5t-131.5 18.5q-97 0 -153 -45.5t-56 -122.5q0 -59 29 -123.5t106 -167.5l416 -559q39 49 58 124t19 179q0 32 -3 102l-1 7h164v-39 q0 -161 -37 -282.5t-112 -209.5l170 -229h-213l-78 109q-83 -70 -176 -104t-199 -34q-216 0 -357 134.5t-141 338.5zM233 475q0 -151 100 -250.5t255 -99.5q42 0 88 12t90 35q27 15 44.5 26.5t33.5 24.5l-428 580q-92 -73 -137.5 -154.5t-45.5 -173.5z" />
<glyph unicode="'" d="M528 938v555h174v-555h-174z" />
<glyph unicode="(" d="M426 643q0 223 74 449t225 462h160q-133 -228 -198.5 -454.5t-65.5 -456.5q0 -229 65.5 -456t198.5 -457h-160q-151 238 -225 463.5t-74 449.5z" />
<glyph unicode=")" d="M348 -270q133 232 198.5 459t65.5 454q0 228 -65.5 455t-198.5 456h160q151 -236 225 -462t74 -449q0 -225 -74 -451t-225 -462h-160z" />
<glyph unicode="*" d="M166 858l358 195l-358 194l57 99l336 -203v377h115v-377l336 203l57 -99l-358 -194l358 -195l-57 -98l-336 203v-377h-115v377l-336 -203z" />
<glyph unicode="+" d="M88 557v170h444v444h168v-444h445v-170h-445v-444h-168v444h-444z" />
<glyph unicode="," d="M403 -287l99 383v207h252v-207l-197 -383h-154z" />
<glyph unicode="-" d="M356 479v164h521v-164h-521z" />
<glyph unicode="." d="M489 0v305h252v-305h-252z" />
<glyph unicode="/" d="M102 -190l787 1683h190l-786 -1683h-191z" />
<glyph unicode="0" d="M133 745q0 383 122 579t361 196t361.5 -196t122.5 -579q0 -382 -122.5 -578t-361.5 -196t-361 196t-122 578zM336 745q0 -310 69.5 -462t210.5 -152q142 0 211.5 152t69.5 462q0 311 -69.5 463t-211.5 152q-141 0 -210.5 -152t-69.5 -463zM483 750q0 55 38.5 95t92.5 40 q56 0 96 -40t40 -95q0 -56 -39.5 -95t-96.5 -39q-56 0 -93.5 38t-37.5 96z" />
<glyph unicode="1" d="M246 1235v184l336 74h202v-1323h310v-170h-824v170h314v1141z" />
<glyph unicode="2" d="M152 0v170q187 197 327 348t193 213q100 122 135 197.5t35 154.5q0 125 -73.5 196t-201.5 71q-91 0 -191 -33t-212 -100v204q103 49 202.5 74t196.5 25q219 0 352.5 -116.5t133.5 -305.5q0 -96 -44.5 -192t-144.5 -212q-56 -65 -162.5 -180t-324.5 -344h686v-170h-907z " />
<glyph unicode="3" d="M137 45v201q102 -53 201 -79t197 -26q166 0 255 75t89 216q0 130 -89 206.5t-241 76.5h-154v166h154q139 0 217 61t78 170q0 115 -72.5 176.5t-206.5 61.5q-89 0 -184 -20t-199 -60v186q121 32 215.5 48t167.5 16q218 0 348.5 -109.5t130.5 -290.5q0 -123 -68.5 -205 t-199.5 -116q147 -39 225 -138.5t78 -248.5q0 -206 -138.5 -323.5t-383.5 -117.5q-103 0 -210 19t-210 55z" />
<glyph unicode="4" d="M102 356v191l600 946h234v-973h199v-164h-199v-356h-201v356h-633zM264 520h471v789z" />
<glyph unicode="5" d="M143 35v205q92 -50 185 -74.5t190 -24.5q167 0 257.5 88t90.5 250q0 160 -93.5 249t-260.5 89q-81 0 -158 -18.5t-147 -55.5v750h756v-170h-572v-367q43 16 86.5 23.5t87.5 7.5q232 0 368 -137t136 -371q0 -236 -142.5 -372t-389.5 -136q-119 0 -217.5 16t-176.5 48z" />
<glyph unicode="6" d="M133 745q0 378 145.5 576.5t421.5 198.5q74 0 148 -15.5t143 -44.5v-186q-63 37 -134 56.5t-148 19.5q-192 0 -291 -144.5t-99 -425.5q48 100 133 153.5t195 53.5q216 0 334.5 -132.5t118.5 -375.5q0 -242 -122 -375t-343 -133q-260 0 -381 186.5t-121 587.5zM354 479 q0 -164 74 -257t203 -93q134 0 202 88.5t68 261.5q0 174 -68 262t-202 88q-129 0 -203 -93t-74 -257z" />
<glyph unicode="7" d="M139 1323v170h940v-86l-534 -1407h-211l520 1323h-715z" />
<glyph unicode="8" d="M131 399q0 160 79.5 260.5t229.5 133.5q-129 33 -201.5 123t-72.5 217q0 178 121 282.5t329 104.5q209 0 330 -104.5t121 -282.5q0 -127 -72.5 -217t-201.5 -123q150 -33 229.5 -133t79.5 -259q0 -202 -129 -316t-357 -114t-356.5 113.5t-128.5 314.5zM334 420 q0 -138 74.5 -214.5t207.5 -76.5q136 0 209.5 75.5t73.5 215.5q0 137 -74.5 213t-208.5 76q-135 0 -208.5 -75.5t-73.5 -213.5zM367 1114q0 -120 64 -183t185 -63q122 0 186 63t64 183q0 122 -63.5 186t-186.5 64q-121 0 -185 -64.5t-64 -185.5z" />
<glyph unicode="9" d="M127 1014q0 241 121.5 373.5t343.5 132.5q260 0 381 -187t121 -588q0 -377 -145.5 -575.5t-422.5 -198.5q-73 0 -147 15.5t-143 44.5v186q63 -37 134 -56.5t148 -19.5q192 0 290.5 144.5t98.5 425.5q-47 -100 -132 -153.5t-195 -53.5q-216 0 -334.5 133t-118.5 377z M326 1012q0 -174 67.5 -262t202.5 -88q129 0 202.5 93t73.5 257t-73.5 257t-202.5 93q-134 0 -202 -88.5t-68 -261.5z" />
<glyph unicode=":" d="M489 0v305h252v-305h-252zM489 760v303h252v-303h-252z" />
<glyph unicode=";" d="M403 -287l99 383v207h252v-207l-197 -383h-154zM489 760v303h252v-303h-252z" />
<glyph unicode="&#x3c;" d="M88 559v166l1057 418v-182l-850 -320l850 -317v-183z" />
<glyph unicode="=" d="M88 352v172h1057v-172h-1057zM88 760v170h1057v-170h-1057z" />
<glyph unicode="&#x3e;" d="M88 141v183l850 317l-850 320v182l1057 -418v-166z" />
<glyph unicode="?" d="M244 1219v188q94 57 189.5 85t199.5 28q186 0 296.5 -96t110.5 -257q0 -76 -33.5 -141.5t-127.5 -157.5l-88 -86q-69 -66 -88 -108t-19 -103v-47v-123h-190v154q0 98 30.5 166.5t114.5 150.5l90 89q62 59 85.5 103t23.5 93q0 89 -65.5 144t-174.5 55q-78 0 -167 -34.5 t-187 -102.5zM487 0v254h203v-254h-203z" />
<glyph unicode="@" d="M27 543q0 390 188 621t504 231q209 0 334 -133t125 -357v-770h-144v111q-37 -63 -102.5 -97t-147.5 -34q-161 0 -266.5 121t-105.5 309t105.5 309t266.5 121q80 0 147 -35t103 -96v63q0 156 -88 251t-233 95q-246 0 -391.5 -191.5t-145.5 -518.5q0 -329 165 -524 t439 -195q54 0 108 10t111 31l48 -135q-63 -25 -124.5 -37t-119.5 -12q-357 0 -566.5 233t-209.5 629zM567 545q0 -130 64.5 -207.5t171.5 -77.5t171 77.5t64 207.5q0 129 -64 206.5t-171 77.5t-171.5 -77.5t-64.5 -206.5z" />
<glyph unicode="A" d="M37 0l457 1493h245l457 -1493h-209l-110 389h-523l-108 -389h-209zM403 551h426l-213 764z" />
<glyph unicode="B" d="M166 0v1493h442q229 0 353 -99t124 -280q0 -137 -65.5 -216t-196.5 -99q147 -22 230.5 -125.5t83.5 -263.5q0 -203 -133 -306.5t-396 -103.5h-442zM369 166h239q176 0 251 61.5t75 202.5q0 146 -79 214.5t-247 68.5h-239v-547zM369 877h235q146 0 211.5 56t65.5 181 q0 113 -64.5 163t-212.5 50h-235v-450z" />
<glyph unicode="C" d="M139 745q0 366 159.5 570.5t444.5 204.5q91 0 172 -20.5t158 -61.5v-207q-74 61 -159 93t-171 32q-197 0 -295 -152t-98 -459q0 -306 98 -458t295 -152q88 0 172.5 32t157.5 93v-207q-77 -41 -158 -61.5t-172 -20.5q-287 0 -445.5 203t-158.5 571z" />
<glyph unicode="D" d="M137 0v1493h303q342 0 504 -182t162 -566q0 -382 -162 -563.5t-504 -181.5h-303zM340 166h96q255 0 356 125.5t101 453.5q0 331 -100.5 456.5t-356.5 125.5h-96v-1161z" />
<glyph unicode="E" d="M197 0v1493h886v-170h-684v-442h654v-170h-654v-541h703v-170h-905z" />
<glyph unicode="F" d="M233 0v1493h879v-170h-676v-440h613v-170h-613v-713h-203z" />
<glyph unicode="G" d="M102 745q0 366 160 570.5t445 204.5q94 0 180 -26.5t166 -80.5v-207q-81 77 -166 113.5t-180 36.5q-197 0 -295.5 -152.5t-98.5 -458.5q0 -311 95.5 -460.5t293.5 -149.5q67 0 117.5 15.5t91.5 48.5v401h-217v166h410v-643q-81 -75 -182.5 -113.5t-219.5 -38.5 q-284 0 -442 203.5t-158 570.5z" />
<glyph unicode="H" d="M137 0v1493h203v-612h553v612h203v-1493h-203v711h-553v-711h-203z" />
<glyph unicode="I" d="M201 0v170h313v1153h-313v170h829v-170h-313v-1153h313v-170h-829z" />
<glyph unicode="J" d="M109 61v236q91 -81 188 -121.5t201 -40.5q143 0 199.5 74.5t56.5 277.5v836h-381v170h583v-1006q0 -282 -105.5 -399t-352.5 -117q-96 0 -191 22t-198 68z" />
<glyph unicode="K" d="M137 0v1493h203v-664l631 664h237l-581 -610l598 -883h-244l-487 748l-154 -164v-584h-203z" />
<glyph unicode="L" d="M215 0v1493h203v-1323h721v-170h-924z" />
<glyph unicode="M" d="M86 0v1493h270l258 -760l260 760h271v-1493h-187v1319l-266 -787h-153l-267 787v-1319h-186z" />
<glyph unicode="N" d="M139 0v1493h256l504 -1229v1229h195v-1493h-256l-504 1229v-1229h-195z" />
<glyph unicode="O" d="M117 745q0 391 123.5 583t375.5 192q253 0 376.5 -192t123.5 -583q0 -390 -123.5 -582t-376.5 -192t-376 191t-123 583zM328 745q0 -328 67.5 -469t220.5 -141q154 0 221.5 140.5t67.5 469.5t-67.5 470t-221.5 141q-153 0 -220.5 -141t-67.5 -470z" />
<glyph unicode="P" d="M197 0v1493h436q250 0 379 -113.5t129 -332.5q0 -221 -128.5 -334t-379.5 -113h-234v-600h-202zM399 766h234q140 0 218.5 74t78.5 207t-78 206.5t-219 73.5h-234v-561z" />
<glyph unicode="Q" d="M117 745q0 391 123.5 583t375.5 192q253 0 376.5 -192t123.5 -583q0 -294 -68.5 -473.5t-207.5 -251.5l200 -190l-151 -100l-234 243q-7 0 -20 -1t-21 -1q-250 0 -373.5 192t-123.5 582zM328 745q0 -328 67.5 -469t220.5 -141q154 0 221.5 140.5t67.5 469.5t-67.5 470 t-221.5 141q-153 0 -220.5 -141t-67.5 -470z" />
<glyph unicode="R" d="M143 0v1493h416q246 0 377 -111t131 -321q0 -148 -80.5 -241.5t-226.5 -114.5q78 -20 133 -75.5t137 -221.5l203 -408h-217l-178 377q-77 161 -138.5 207.5t-160.5 46.5h-193v-631h-203zM346 797h221q145 0 216 65t71 199q0 129 -75.5 197.5t-219.5 68.5h-213v-530z" />
<glyph unicode="S" d="M139 1079q0 200 134.5 320.5t357.5 120.5q86 0 181 -19.5t200 -58.5v-205q-92 59 -184.5 89t-186.5 30q-143 0 -226 -66.5t-83 -179.5q0 -99 54.5 -151t203.5 -87l106 -24q210 -49 306 -154t96 -286q0 -213 -132 -325t-384 -112q-105 0 -211 22.5t-213 67.5v215 q115 -73 217.5 -107t206.5 -34q153 0 238 68.5t85 191.5q0 112 -58.5 171t-203.5 91l-108 25q-208 47 -302 142t-94 255z" />
<glyph unicode="T" d="M47 1323v170h1139v-170h-467v-1323h-203v1323h-469z" />
<glyph unicode="U" d="M147 573v920h203v-1012q0 -109 6 -155.5t21 -71.5q32 -59 92.5 -89t146.5 -30q87 0 147 30t93 89q15 25 21 71t6 154v1014h202v-920q0 -229 -28.5 -325.5t-98.5 -159.5q-66 -59 -151 -88t-191 -29q-105 0 -190 29t-152 88q-69 62 -98 160.5t-29 324.5z" />
<glyph unicode="V" d="M57 1493h209l350 -1323l351 1323h209l-437 -1493h-245z" />
<glyph unicode="W" d="M0 1493h197l143 -1212l170 802h211l172 -804l143 1214h197l-223 -1493h-191l-203 887l-202 -887h-191z" />
<glyph unicode="X" d="M18 0l500 791l-432 702h217l328 -563l334 563h217l-447 -702l479 -791h-217l-366 643l-395 -643h-218z" />
<glyph unicode="Y" d="M37 1493h215l364 -659l363 659h217l-479 -823v-670h-203v670z" />
<glyph unicode="Z" d="M156 0v154l759 1169h-737v170h969v-154l-780 -1169h802v-170h-1013z" />
<glyph unicode="[" d="M463 -270v1826h424v-143h-240v-1540h240v-143h-424z" />
<glyph unicode="\" d="M102 1493h191l786 -1683h-190z" />
<glyph unicode="]" d="M346 -127h240v1540h-240v143h424v-1826h-424v143z" />
<glyph unicode="^" d="M72 936l456 557h177l456 -557h-178l-367 395l-366 -395h-178z" />
<glyph unicode="_" d="M0 -403h1233v-80h-1233v80z" />
<glyph unicode="`" d="M279 1638h198l281 -376h-154z" />
<glyph unicode="a" d="M133 326q0 187 125.5 284t368.5 97h247v29q-1 134 -68 194.5t-214 60.5q-94 0 -190 -27t-187 -79v184q102 39 195.5 58.5t181.5 19.5q139 0 237.5 -41t159.5 -123q38 -50 54 -123.5t16 -220.5v-639h-185v166q-59 -100 -148.5 -147.5t-217.5 -47.5q-171 0 -273 96.5 t-102 258.5zM317 338q0 -101 61 -157t169 -56q152 0 239 105.5t88 291.5v41h-172h-61q-161 0 -242.5 -56.5t-81.5 -168.5z" />
<glyph unicode="b" d="M193 0v1556h184v-579q44 82 121.5 126t179.5 44q202 0 318 -155.5t116 -428.5q0 -277 -116.5 -434.5t-319.5 -157.5q-100 0 -176.5 43.5t-122.5 126.5v-141h-184zM377 559q0 -212 69 -322t203 -110q133 0 201 109t68 323t-68 323t-201 109q-134 0 -203 -109.5t-69 -322.5 z" />
<glyph unicode="c" d="M195 559q0 276 146.5 432t406.5 156q81 0 158 -21t155 -65v-193q-73 65 -146.5 94t-166.5 29q-173 0 -266 -112t-93 -320q0 -207 93.5 -319.5t265.5 -112.5q96 0 172 29.5t141 91.5v-191q-74 -43 -152.5 -64.5t-160.5 -21.5q-260 0 -406.5 156t-146.5 432z" />
<glyph unicode="d" d="M123 563q0 273 117 428.5t319 155.5q101 0 178 -43.5t121 -126.5v579h184v-1556h-184v141q-46 -83 -122.5 -126.5t-176.5 -43.5q-203 0 -319.5 157.5t-116.5 434.5zM317 559q0 -214 68 -323t201 -109t202.5 110t69.5 322q0 213 -69.5 322.5t-202.5 109.5t-201 -109 t-68 -323z" />
<glyph unicode="e" d="M123 559q0 268 144 428t384 160q214 0 337.5 -145t123.5 -396v-90h-797v-6q0 -183 95.5 -283t269.5 -100q88 0 184 28t205 85v-183q-105 -43 -202.5 -64.5t-188.5 -21.5q-261 0 -408 156.5t-147 431.5zM322 659l606 1q-4 162 -76.5 246.5t-208.5 84.5q-133 0 -219 -88 t-102 -244z" />
<glyph unicode="f" d="M195 977v143h299v78q0 184 84.5 271t263.5 87h221v-153h-209q-99 0 -137.5 -40.5t-38.5 -143.5v-99h385v-143h-385v-977h-184v977h-299z" />
<glyph unicode="g" d="M123 569q0 264 117 421t313 157q108 0 183 -43t122 -133v145h184v-1044q0 -252 -119 -382t-350 -130q-76 0 -159 14t-166 41v182q98 -46 178 -68t147 -22q149 0 217 81t68 257v8v125q-44 -94 -120 -140t-185 -46q-196 0 -313 157t-117 420zM317 569q0 -207 71.5 -315.5 t207.5 -108.5q127 0 194.5 109t67.5 315q0 207 -67.5 314.5t-196.5 107.5q-135 0 -206 -107.5t-71 -314.5z" />
<glyph unicode="h" d="M195 0v1556h184v-604q49 96 133 145.5t199 49.5q171 0 255.5 -112.5t84.5 -340.5v-694h-185v694q0 151 -53 222t-166 71q-129 0 -198.5 -91.5t-69.5 -262.5v-633h-184z" />
<glyph unicode="i" d="M178 0v143h365v834h-287v143h471v-977h365v-143h-914zM543 1323v233h184v-233h-184z" />
<glyph unicode="j" d="M186 -270h234q90 0 135 62.5t45 187.5v997h-317v143h501v-1140q0 -195 -89.5 -300.5t-254.5 -105.5h-254v156zM600 1323v233h184v-233h-184z" />
<glyph unicode="k" d="M236 0v1556h190v-901l483 465h224l-441 -422l510 -698h-225l-414 578l-137 -129v-449h-190z" />
<glyph unicode="l" d="M160 1423v144h479v-1161q0 -124 45.5 -187t134.5 -63h215v-156h-233q-165 0 -255.5 106t-90.5 300v1017h-295z" />
<glyph unicode="m" d="M109 0v1120h167v-96q33 60 82.5 91.5t112.5 31.5q76 0 126.5 -35t78.5 -106q34 72 86.5 106.5t126.5 34.5q135 0 190.5 -104.5t55.5 -393.5v-649h-168v641q0 237 -26.5 294.5t-96.5 57.5q-80 0 -109.5 -61.5t-29.5 -290.5v-641h-168v641q0 240 -28.5 296t-102.5 56 q-73 0 -101.5 -61.5t-28.5 -290.5v-641h-167z" />
<glyph unicode="n" d="M195 0v1120h184v-168q49 96 133 145.5t199 49.5q171 0 255.5 -112.5t84.5 -340.5v-694h-185v694q0 151 -53 222t-166 71q-129 0 -198.5 -91.5t-69.5 -262.5v-633h-184z" />
<glyph unicode="o" d="M137 559q0 286 123 437t356 151t356.5 -151t123.5 -437q0 -287 -123 -437.5t-357 -150.5q-233 0 -356 150.5t-123 437.5zM332 559q0 -213 72 -322.5t212 -109.5q141 0 213 109.5t72 322.5q0 214 -72 323t-213 109q-140 0 -212 -109t-72 -323z" />
<glyph unicode="p" d="M190 -426v1546h185v-143q46 83 122.5 126.5t176.5 43.5q203 0 318.5 -157t115.5 -435q0 -273 -116 -428.5t-318 -155.5q-102 0 -178.5 43.5t-120.5 126.5v-567h-185zM375 559q0 -212 69 -322t203 -110q133 0 200.5 109t67.5 323t-67.5 323t-200.5 109q-134 0 -203 -109.5 t-69 -322.5z" />
<glyph unicode="q" d="M137 551q0 278 116 435t318 157q100 0 176.5 -43.5t122.5 -126.5v143h185v-1546h-185v569q-45 -83 -121.5 -127.5t-177.5 -44.5q-201 0 -317.5 155.5t-116.5 428.5zM332 555q0 -214 67.5 -323t200.5 -109t201.5 109.5t68.5 322.5t-68.5 322.5t-201.5 109.5t-200.5 -109 t-67.5 -323z" />
<glyph unicode="r" d="M362 0v1120h185v-219q46 119 141.5 182.5t226.5 63.5q68 0 127 -17t113 -53v-188q-59 46 -120 67t-134 21q-172 0 -263 -108t-91 -312v-557h-185z" />
<glyph unicode="s" d="M213 41v190q103 -53 197 -79.5t178 -26.5q122 0 189 49.5t67 138.5q0 128 -245 177l-8 2l-69 14q-159 31 -232 104.5t-73 200.5q0 161 109 248.5t311 87.5q90 0 173 -16.5t163 -49.5v-180q-79 46 -159 69t-163 23q-125 0 -186.5 -40.5t-61.5 -123.5q0 -75 46 -112 t229 -72l74 -14q137 -26 207.5 -104t70.5 -203q0 -166 -118 -259.5t-328 -93.5q-83 0 -174 17.5t-197 52.5z" />
<glyph unicode="t" d="M131 977v143h299v318h184v-318h418v-143h-418v-608q0 -124 47 -173t164 -49h207v-147h-225q-207 0 -292 83t-85 286v608h-299z" />
<glyph unicode="u" d="M195 424v694h184v-694q0 -151 53.5 -222t165.5 -71q130 0 199 91.5t69 262.5v633h185v-1118h-185v168q-49 -97 -133.5 -147t-197.5 -50q-172 0 -256 112.5t-84 340.5z" />
<glyph unicode="v" d="M100 1120h191l325 -940l326 940h191l-398 -1120h-237z" />
<glyph unicode="w" d="M0 1120h182l195 -905l160 578h157l162 -578l195 905h182l-262 -1120h-176l-179 614l-178 -614h-176z" />
<glyph unicode="x" d="M76 0l440 584l-401 536h204l297 -405l295 405h207l-401 -536l440 -584h-213l-328 449l-327 -449h-213z" />
<glyph unicode="y" d="M104 1120h195l332 -876l327 876h195l-295 -760q-46 -117 -117 -308q-99 -264 -133 -322q-46 -78 -115 -117t-161 -39h-148v154h109q81 0 127 47t117 243z" />
<glyph unicode="z" d="M203 0v170l643 805h-619v147h813v-168l-643 -804h643v-150h-837z" />
<glyph unicode="{" d="M221 541v143h62q141 0 194 57t53 207v240q0 221 84.5 294.5t333.5 73.5h64v-143h-70q-140 0 -182.5 -43.5t-42.5 -185.5v-248q0 -157 -45.5 -228t-155.5 -96q111 -27 156 -98t45 -227v-248q0 -143 42.5 -186t182.5 -43h70v-144h-64q-249 0 -333.5 74t-84.5 295v239 q0 151 -53.5 209t-193.5 58h-62z" />
<glyph unicode="|" d="M530 -483v2048h172v-2048h-172z" />
<glyph unicode="}" d="M221 -190h68q141 0 184 44t43 185v248q0 156 45 227t156 98q-110 25 -155.5 96t-45.5 228v248q0 141 -43 185t-184 44h-68v143h62q249 0 333 -73.5t84 -294.5v-240q0 -150 53.5 -207t194.5 -57h64v-143h-64q-141 0 -194.5 -58t-53.5 -209v-239q0 -221 -84 -295t-333 -74 h-62v144z" />
<glyph unicode="~" d="M88 492v174q78 60 151 87t156 27q53 0 103 -11t124 -42q12 -5 33 -15q116 -55 209 -55q70 0 138.5 30.5t142.5 92.5v-174q-75 -59 -146.5 -86.5t-150.5 -27.5q-90 0 -203 51q-22 10 -33 14q-77 33 -128.5 45t-102.5 12q-79 0 -149.5 -29.5t-143.5 -92.5z" />
<glyph unicode="&#xa0;" />
<glyph unicode="&#xa1;" d="M516 0v655l21 357h161l21 -357v-655h-203zM516 1239v254h203v-254h-203z" />
<glyph unicode="&#xa2;" d="M213 559q0 250 131.5 408.5t353.5 177.5v287h103v-287q57 -3 122 -20t138 -48v-172q-67 40 -132 62t-128 26v-870q63 5 128.5 27.5t131.5 62.5v-172q-73 -31 -138 -48t-122 -20v-286h-103v286q-225 22 -355 178.5t-130 407.5zM406 559q0 -184 80 -301.5t212 -130.5v864 q-132 -12 -212 -130t-80 -302z" />
<glyph unicode="&#xa3;" d="M139 0v170h236v465h-199v143h199v238q0 254 109.5 379t332.5 125q65 0 133.5 -14.5t141.5 -43.5v-184q-62 44 -125.5 66t-130.5 22q-134 0 -197.5 -89.5t-63.5 -281.5v-217h371v-143h-371v-465h537v-170h-973z" />
<glyph unicode="&#xa4;" d="M205 285l166 166q-31 51 -45.5 97.5t-14.5 92.5q0 50 15.5 96.5t46.5 91.5l-168 166l94 95l166 -168q46 31 91.5 46t96.5 15q46 0 93 -14.5t98 -44.5l166 166l90 -93l-166 -166q30 -49 44.5 -95.5t14.5 -94.5q0 -50 -15 -95.5t-46 -90.5l168 -166l-94 -94l-166 167 q-46 -31 -91.5 -46t-95.5 -15q-48 0 -96 14.5t-96 42.5l-164 -163zM438 643q0 -92 62.5 -154.5t152.5 -62.5q91 0 153 63t62 154q0 90 -62 151.5t-153 61.5q-90 0 -152.5 -61.5t-62.5 -151.5z" />
<glyph unicode="&#xa5;" d="M37 1493h215l364 -659l363 659h217l-330 -561h252v-111h-315l-86 -151v-35h401v-111h-401v-524h-203v524h-399v111h399v35l-90 151h-309v111h243z" />
<glyph unicode="&#xa6;" d="M530 -350v758h172v-758h-172zM530 674v758h172v-758h-172z" />
<glyph unicode="&#xa7;" d="M199 723q0 91 46.5 162.5t137.5 120.5q-60 44 -89.5 100t-29.5 125q0 130 100 209.5t267 79.5q72 0 148.5 -14.5t156.5 -43.5v-164q-83 39 -154.5 58.5t-128.5 19.5q-97 0 -150.5 -40t-53.5 -111q0 -90 205 -205q26 -15 40 -23q212 -119 277 -196t65 -178 q0 -90 -45.5 -160t-138.5 -123q61 -52 90 -106.5t29 -118.5q0 -142 -102 -226t-275 -84q-73 0 -150.5 14.5t-164.5 43.5v164q87 -39 161 -58.5t131 -19.5q102 0 158.5 42t56.5 118q0 102 -221 225l-24 14q-214 120 -278 196.5t-64 178.5zM362 754q0 -76 70.5 -143.5 t317.5 -200.5q62 45 92 90t30 92q0 76 -71.5 144t-315.5 200q-62 -45 -92.5 -90t-30.5 -92z" />
<glyph unicode="&#xa8;" d="M319 1350v202h203v-202h-203zM711 1350v202h202v-202h-202z" />
<glyph unicode="&#xa9;" d="M0 741q0 126 46 236t136 201q90 90 199 135t235 45q127 0 236 -45t199 -135q90 -91 136 -201t46 -236q0 -125 -45.5 -234t-136.5 -200t-200 -136.5t-235 -45.5q-125 0 -234 45.5t-200 136.5t-136.5 200t-45.5 234zM102 741q0 -104 38.5 -195.5t113.5 -166.5 q76 -76 166.5 -114t195.5 -38q106 0 196.5 38t166.5 114t113.5 166.5t37.5 195.5q0 106 -38 198t-113 167t-165.5 112t-197.5 37q-106 0 -196.5 -37t-165.5 -112t-113.5 -167t-38.5 -198zM250 741q0 173 104 274t283 101q61 0 118 -11t109 -34v-108q-58 28 -113.5 41.5 t-113.5 13.5q-117 0 -184.5 -74.5t-67.5 -202.5q0 -132 70 -203t200 -71q56 0 107.5 12.5t101.5 38.5v-104q-52 -23 -109 -34t-118 -11q-180 0 -283.5 100t-103.5 272z" />
<glyph unicode="&#xaa;" d="M270 950q0 129 93.5 199t265.5 70h182v4q0 90 -59.5 136t-176.5 46q-51 0 -113.5 -17.5t-129.5 -50.5v127q68 28 135.5 42t130.5 14q184 0 270 -86t86 -269v-448h-143v112q-49 -65 -114.5 -98t-147.5 -33q-129 0 -204 68t-75 184zM293 469v123h668v-123h-668zM416 958 q0 -64 43.5 -102.5t115.5 -38.5q105 0 170.5 71.5t65.5 186.5v29h-127q-144 0 -206 -34t-62 -112z" />
<glyph unicode="&#xab;" d="M119 559v82l469 418v-191l-301 -268l301 -268v-191zM573 559v82l469 418v-191l-301 -268l301 -268v-191z" />
<glyph unicode="&#xac;" d="M88 690v172h1057v-491h-168v319h-889z" />
<glyph unicode="&#xad;" d="M356 479v164h521v-164h-521z" />
<glyph unicode="&#xae;" d="M0 741q0 126 46 236t136 201q90 90 199 135t235 45q127 0 236 -45t199 -135q90 -91 136 -201t46 -236q0 -125 -45.5 -234t-136.5 -200t-200 -136.5t-235 -45.5q-125 0 -234 45.5t-200 136.5t-136.5 200t-45.5 234zM102 741q0 -104 38.5 -195.5t113.5 -166.5 q76 -76 166.5 -114t195.5 -38q106 0 196.5 38t166.5 114t113.5 166.5t37.5 195.5q0 106 -38 198t-113 167t-165.5 112t-197.5 37q-106 0 -196.5 -37t-165.5 -112t-113.5 -167t-38.5 -198zM362 406v694h238q147 0 219 -49t72 -150q0 -71 -44 -117.5t-124 -60.5 q19 -5 48 -38.5t67 -92.5l114 -186h-143l-107 174q-49 80 -79.5 101t-75.5 21h-55v-296h-130zM492 784h102q90 0 127 27t37 90q0 62 -37 88.5t-127 26.5h-102v-232z" />
<glyph unicode="&#xaf;" d="M317 1378v148h598v-148h-598z" />
<glyph unicode="&#xb0;" d="M299 1200q0 134 92 227t225 93q65 0 123.5 -24.5t102.5 -70.5q45 -45 68.5 -102t23.5 -123q0 -132 -93 -223.5t-227 -91.5q-135 0 -225 90t-90 225zM426 1200q0 -80 54.5 -134t133.5 -54q80 0 136.5 55t56.5 133q0 79 -56 135t-135 56t-134.5 -55.5t-55.5 -135.5z" />
<glyph unicode="&#xb1;" d="M88 0v170h1057v-170h-1057zM88 672v170h444v329h168v-329h445v-170h-445v-332h-168v332h-444z" />
<glyph unicode="&#xb2;" d="M322 668v110l231 226q101 97 141.5 158t40.5 112q0 61 -50 99t-132 38q-49 0 -105.5 -18t-119.5 -54v125q65 28 125.5 42t119.5 14q142 0 228 -66.5t86 -173.5q0 -57 -37 -116.5t-156 -176.5l-211 -205h410v-114h-571z" />
<glyph unicode="&#xb3;" d="M326 694v121q69 -27 125.5 -40t101.5 -13q101 0 160 40.5t59 108.5q0 74 -55 112t-164 38h-66v108h74q93 0 142 31.5t49 91.5q0 56 -48 87.5t-135 31.5q-44 0 -100 -12t-115 -35v121q69 17 127.5 26t108.5 9q145 0 229 -59t84 -158q0 -71 -44 -117.5t-128 -65.5 q94 -21 143.5 -75t49.5 -134q0 -124 -95 -191t-272 -67q-58 0 -115 10.5t-116 30.5z" />
<glyph unicode="&#xb4;" d="M475 1262l281 376h198l-325 -376h-154z" />
<glyph unicode="&#xb5;" d="M195 -428v1548h184v-696q0 -142 60 -217.5t171 -75.5q127 0 191.5 85t64.5 251v653h185v-864q0 -59 16 -87t49 -28q9 0 23.5 5t42.5 18v-148q-38 -23 -72 -34t-68 -11q-62 0 -99.5 39.5t-49.5 118.5q-46 -80 -112.5 -119t-155.5 -39q-92 0 -155.5 38t-107.5 118v-555 h-167z" />
<glyph unicode="&#xb6;" d="M106 1071q0 190 130.5 306t345.5 116h448v-1690h-141v1567h-191v-1567h-141v846q-215 17 -333 127.5t-118 294.5z" />
<glyph unicode="&#xb7;" d="M489 559v305h252v-305h-252z" />
<glyph unicode="&#xb8;" d="M395 -240q34 -17 71.5 -24.5t84.5 -7.5q58 0 88.5 24t30.5 70q0 30 -22 73.5t-66 104.5h118q56 -62 82.5 -114.5t26.5 -100.5q0 -89 -60 -134.5t-178 -45.5q-45 0 -88.5 6t-87.5 18v131z" />
<glyph unicode="&#xb9;" d="M344 1348v116l229 39h138v-725h204v-110h-553v110h205v611z" />
<glyph unicode="&#xba;" d="M244 1108q0 188 101.5 300t270.5 112q170 0 271.5 -112t101.5 -300q0 -187 -101 -298.5t-272 -111.5q-170 0 -271 111.5t-101 298.5zM276 469v123h676v-123h-676zM399 1108q0 -139 57.5 -216t159.5 -77q101 0 159.5 78.5t58.5 214.5q0 139 -57.5 217t-160.5 78 q-102 0 -159.5 -78t-57.5 -217z" />
<glyph unicode="&#xbb;" d="M193 141v191l301 268l-301 268v191l469 -418v-82zM647 141v191l301 268l-301 268v191l469 -418v-82z" />
<glyph unicode="&#xbc;" d="M452 -84v121l363 528h162v-538h116v-111h-116v-186h-138v186h-387zM565 27h274v413zM86 1504v116l229 39h138v-725h204v-110h-553v110h205v611zM27 612l1060 262l27 -108l-1063 -262z" />
<glyph unicode="&#xbd;" d="M86 1504v116l229 39h138v-725h204v-110h-553v110h205v611zM27 612l1060 262l27 -108l-1063 -262zM523 -270v110l231 226q101 97 141.5 158t40.5 112q0 61 -50 99t-132 38q-49 0 -105.5 -18t-119.5 -54v125q65 28 125.5 42t119.5 14q142 0 228 -66.5t86 -173.5 q0 -57 -37 -116.5t-156 -176.5l-211 -205h410v-114h-571z" />
<glyph unicode="&#xbe;" d="M452 -84v121l363 528h162v-538h116v-111h-116v-186h-138v186h-387zM565 27h274v413zM99 850v121q69 -27 125.5 -40t101.5 -13q101 0 160 40.5t59 108.5q0 74 -55 112t-164 38h-66v108h74q93 0 142 31.5t49 91.5q0 56 -48 87.5t-135 31.5q-44 0 -100 -12t-115 -35v121 q69 17 127.5 26t108.5 9q145 0 229 -59t84 -158q0 -71 -44 -117.5t-128 -65.5q94 -21 143.5 -75t49.5 -134q0 -124 -95 -191t-272 -67q-58 0 -115 10.5t-116 30.5zM27 612l1060 262l27 -108l-1063 -262z" />
<glyph unicode="&#xbf;" d="M193 326q0 76 33.5 141.5t127.5 157.5l88 86q67 64 86 106t19 105v5q2 23 2 42v123h190v-154q0 -98 -30.5 -166.5t-114.5 -150.5l-90 -89q-62 -59 -85.5 -103t-23.5 -93q0 -89 65.5 -144t174.5 -55q78 0 167 34.5t187 102.5v-188q-94 -57 -189.5 -85t-199.5 -28 q-186 0 -296.5 96t-110.5 257zM543 1239v254h202v-254h-202z" />
<glyph unicode="&#xc0;" d="M37 0l457 1493h245l457 -1493h-209l-110 389h-523l-108 -389h-209zM403 551h426l-213 764zM377 1899h184l197 -264h-154z" />
<glyph unicode="&#xc1;" d="M37 0l457 1493h245l457 -1493h-209l-110 389h-523l-108 -389h-209zM403 551h426l-213 764zM475 1635l197 264h186l-229 -264h-154z" />
<glyph unicode="&#xc2;" d="M37 0l457 1493h245l457 -1493h-209l-110 389h-523l-108 -389h-209zM403 551h426l-213 764zM311 1635l211 266h189l211 -266h-140l-166 178l-165 -178h-140z" />
<glyph unicode="&#xc3;" d="M37 0l457 1493h245l457 -1493h-209l-110 389h-523l-108 -389h-209zM403 551h426l-213 764zM287 1667q0 101 51.5 160t136.5 59q36 0 66.5 -8t79.5 -35l57 -30q22 -13 39.5 -19t32.5 -6q31 0 51 25.5t20 66.5v6h125q-2 -100 -53 -159.5t-135 -59.5q-34 0 -64 8t-82 35 l-57 33q-25 14 -40.5 19.5t-27.5 5.5q-35 0 -55 -25t-20 -70v-6h-125z" />
<glyph unicode="&#xc4;" d="M37 0l457 1493h245l457 -1493h-209l-110 389h-523l-108 -389h-209zM403 551h426l-213 764zM319 1667v203h203v-203h-203zM711 1667v203h202v-203h-202z" />
<glyph unicode="&#xc5;" d="M37 0l428 1399q-58 33 -90.5 93.5t-32.5 133.5q0 114 80 194.5t194 80.5t194.5 -80.5t80.5 -194.5q0 -73 -32 -132t-91 -95l428 -1399h-209l-110 389h-523l-108 -389h-209zM403 551h426l-213 760zM465 1626q0 -63 44 -107t107 -44t107.5 44t44.5 107t-44.5 107.5 t-107.5 44.5q-64 0 -107.5 -43.5t-43.5 -108.5z" />
<glyph unicode="&#xc6;" d="M0 0l410 1493h751v-170h-338v-442h307v-170h-307v-541h357v-170h-543v383h-352l-101 -383h-184zM328 551h309v772h-107z" />
<glyph unicode="&#xc7;" d="M495 -240q34 -17 71.5 -24.5t84.5 -7.5q58 0 88.5 24t30.5 70q0 30 -22 73.5t-66 104.5h118q56 -62 82.5 -114.5t26.5 -100.5q0 -89 -60 -134.5t-178 -45.5q-45 0 -88.5 6t-87.5 18v131zM139 745q0 366 159.5 570.5t444.5 204.5q91 0 172 -20.5t158 -61.5v-207 q-74 61 -159 93t-171 32q-197 0 -295 -152t-98 -459q0 -306 98 -458t295 -152q88 0 172.5 32t157.5 93v-207q-77 -41 -158 -61.5t-172 -20.5q-287 0 -445.5 203t-158.5 571z" />
<glyph unicode="&#xc8;" d="M197 0v1493h886v-170h-684v-442h654v-170h-654v-541h703v-170h-905zM395 1899h184l197 -264h-154z" />
<glyph unicode="&#xc9;" d="M197 0v1493h886v-170h-684v-442h654v-170h-654v-541h703v-170h-905zM493 1635l197 264h186l-229 -264h-154z" />
<glyph unicode="&#xca;" d="M197 0v1493h886v-170h-684v-442h654v-170h-654v-541h703v-170h-905zM329 1635l211 266h189l211 -266h-140l-166 178l-165 -178h-140z" />
<glyph unicode="&#xcb;" d="M197 0v1493h886v-170h-684v-442h654v-170h-654v-541h703v-170h-905zM337 1667v203h203v-203h-203zM729 1667v203h202v-203h-202z" />
<glyph unicode="&#xcc;" d="M201 0v170h313v1153h-313v170h829v-170h-313v-1153h313v-170h-829zM377 1899h184l197 -264h-154z" />
<glyph unicode="&#xcd;" d="M201 0v170h313v1153h-313v170h829v-170h-313v-1153h313v-170h-829zM475 1635l197 264h186l-229 -264h-154z" />
<glyph unicode="&#xce;" d="M201 0v170h313v1153h-313v170h829v-170h-313v-1153h313v-170h-829zM311 1635l211 266h189l211 -266h-140l-166 178l-165 -178h-140z" />
<glyph unicode="&#xcf;" d="M201 0v170h313v1153h-313v170h829v-170h-313v-1153h313v-170h-829zM319 1667v203h203v-203h-203zM711 1667v203h202v-203h-202z" />
<glyph unicode="&#xd0;" d="M8 709v149h125v635h303q342 0 504 -182t162 -566q0 -382 -162.5 -563.5t-503.5 -181.5h-303v709h-125zM340 166h96q255 0 356 125.5t101 453.5q0 331 -100.5 456.5t-356.5 125.5h-96v-469h264v-149h-264v-543z" />
<glyph unicode="&#xd1;" d="M139 0v1493h256l504 -1229v1229h195v-1493h-256l-504 1229v-1229h-195zM287 1671q0 101 51.5 160t136.5 59q36 0 66.5 -8t79.5 -35l57 -30q22 -13 39.5 -19t32.5 -6q31 0 51 25.5t20 66.5v6h125q-2 -100 -53 -159.5t-135 -59.5q-34 0 -64 8t-82 35l-57 33 q-25 14 -40.5 19.5t-27.5 5.5q-35 0 -55 -25t-20 -70v-6h-125z" />
<glyph unicode="&#xd2;" d="M117 745q0 391 123.5 583t375.5 192q253 0 376.5 -192t123.5 -583q0 -390 -123.5 -582t-376.5 -192t-376 191t-123 583zM328 745q0 -328 67.5 -469t220.5 -141q154 0 221.5 140.5t67.5 469.5t-67.5 470t-221.5 141q-153 0 -220.5 -141t-67.5 -470zM377 1899h184l197 -264 h-154z" />
<glyph unicode="&#xd3;" d="M117 745q0 391 123.5 583t375.5 192q253 0 376.5 -192t123.5 -583q0 -390 -123.5 -582t-376.5 -192t-376 191t-123 583zM328 745q0 -328 67.5 -469t220.5 -141q154 0 221.5 140.5t67.5 469.5t-67.5 470t-221.5 141q-153 0 -220.5 -141t-67.5 -470zM475 1635l197 264h186 l-229 -264h-154z" />
<glyph unicode="&#xd4;" d="M117 745q0 391 123.5 583t375.5 192q253 0 376.5 -192t123.5 -583q0 -390 -123.5 -582t-376.5 -192t-376 191t-123 583zM328 745q0 -328 67.5 -469t220.5 -141q154 0 221.5 140.5t67.5 469.5t-67.5 470t-221.5 141q-153 0 -220.5 -141t-67.5 -470zM311 1635l211 266h189 l211 -266h-140l-166 178l-165 -178h-140z" />
<glyph unicode="&#xd5;" d="M117 745q0 391 123.5 583t375.5 192q253 0 376.5 -192t123.5 -583q0 -390 -123.5 -582t-376.5 -192t-376 191t-123 583zM328 745q0 -328 67.5 -469t220.5 -141q154 0 221.5 140.5t67.5 469.5t-67.5 470t-221.5 141q-153 0 -220.5 -141t-67.5 -470zM287 1667 q0 101 51.5 160t136.5 59q36 0 66.5 -8t79.5 -35l57 -30q22 -13 39.5 -19t32.5 -6q31 0 51 25.5t20 66.5v6h125q-2 -100 -53 -159.5t-135 -59.5q-34 0 -64 8t-82 35l-57 33q-25 14 -40.5 19.5t-27.5 5.5q-35 0 -55 -25t-20 -70v-6h-125z" />
<glyph unicode="&#xd6;" d="M117 745q0 391 123.5 583t375.5 192q253 0 376.5 -192t123.5 -583q0 -390 -123.5 -582t-376.5 -192t-376 191t-123 583zM328 745q0 -328 67.5 -469t220.5 -141q154 0 221.5 140.5t67.5 469.5t-67.5 470t-221.5 141q-153 0 -220.5 -141t-67.5 -470zM319 1667v203h203v-203 h-203zM711 1667v203h202v-203h-202z" />
<glyph unicode="&#xd7;" d="M150 293l350 348l-350 350l116 117l350 -350l351 350l116 -117l-350 -350l348 -348l-116 -119l-349 350l-348 -350z" />
<glyph unicode="&#xd8;" d="M8 0l178 252q-32 73 -50.5 204t-18.5 289q0 391 123.5 583t375.5 192q115 0 201.5 -41t143.5 -121l139 201l100 -74l-168 -238q41 -81 62.5 -210t21.5 -292q0 -390 -123.5 -582t-376.5 -192q-121 0 -211 40.5t-151 121.5l-143 -203zM328 686q0 -80 2.5 -130.5t7.5 -84.5 l504 719q-25 81 -82.5 123.5t-143.5 42.5q-157 0 -222.5 -146t-65.5 -524zM371 303q30 -78 95.5 -123t149.5 -45q154 0 221.5 140.5t67.5 469.5q0 110 -5 178t-15 113z" />
<glyph unicode="&#xd9;" d="M147 573v920h203v-1012q0 -109 6 -155.5t21 -71.5q32 -59 92.5 -89t146.5 -30q87 0 147 30t93 89q15 25 21 71t6 154v1014h202v-920q0 -229 -28.5 -325.5t-98.5 -159.5q-66 -59 -151 -88t-191 -29q-105 0 -190 29t-152 88q-69 62 -98 160.5t-29 324.5zM377 1899h184 l197 -264h-154z" />
<glyph unicode="&#xda;" d="M147 573v920h203v-1012q0 -109 6 -155.5t21 -71.5q32 -59 92.5 -89t146.5 -30q87 0 147 30t93 89q15 25 21 71t6 154v1014h202v-920q0 -229 -28.5 -325.5t-98.5 -159.5q-66 -59 -151 -88t-191 -29q-105 0 -190 29t-152 88q-69 62 -98 160.5t-29 324.5zM475 1635l197 264 h186l-229 -264h-154z" />
<glyph unicode="&#xdb;" d="M147 573v920h203v-1012q0 -109 6 -155.5t21 -71.5q32 -59 92.5 -89t146.5 -30q87 0 147 30t93 89q15 25 21 71t6 154v1014h202v-920q0 -229 -28.5 -325.5t-98.5 -159.5q-66 -59 -151 -88t-191 -29q-105 0 -190 29t-152 88q-69 62 -98 160.5t-29 324.5zM311 1635l211 266 h189l211 -266h-140l-166 178l-165 -178h-140z" />
<glyph unicode="&#xdc;" d="M147 573v920h203v-1012q0 -109 6 -155.5t21 -71.5q32 -59 92.5 -89t146.5 -30q87 0 147 30t93 89q15 25 21 71t6 154v1014h202v-920q0 -229 -28.5 -325.5t-98.5 -159.5q-66 -59 -151 -88t-191 -29q-105 0 -190 29t-152 88q-69 62 -98 160.5t-29 324.5zM319 1667v203h203 v-203h-203zM711 1667v203h202v-203h-202z" />
<glyph unicode="&#xdd;" d="M37 1493h215l364 -659l363 659h217l-479 -823v-670h-203v670zM475 1635l197 264h186l-229 -264h-154z" />
<glyph unicode="&#xde;" d="M201 0v1493h202v-270h254q260 0 384 -105t124 -323q0 -219 -124 -323.5t-384 -104.5h-254v-367h-202zM403 532h234q158 0 236.5 66t78.5 197t-78.5 196.5t-236.5 65.5h-234v-525z" />
<glyph unicode="&#xdf;" d="M188 0v1137q0 213 105 316t321 103q204 0 309 -110.5t107 -326.5q-155 -14 -239 -76t-84 -162q0 -49 27.5 -87.5t94.5 -80.5l58 -37q151 -93 206.5 -175t55.5 -198q0 -154 -112 -243t-308 -89q-69 0 -136.5 12.5t-133.5 36.5v164q76 -31 142.5 -46t125.5 -15 q108 0 172 48.5t64 129.5q0 71 -32.5 118.5t-152.5 121.5l-67 39q-92 56 -137.5 122.5t-45.5 145.5q0 128 81 213.5t237 120.5q-2 107 -62.5 164t-173.5 57q-121 0 -178 -65.5t-57 -204.5v-1133h-187z" />
<glyph unicode="&#xe0;" d="M133 326q0 187 125.5 284t368.5 97h247v29q-1 134 -68 194.5t-214 60.5q-94 0 -190 -27t-187 -79v184q102 39 195.5 58.5t181.5 19.5q139 0 237.5 -41t159.5 -123q38 -50 54 -123.5t16 -220.5v-639h-185v166q-59 -100 -148.5 -147.5t-217.5 -47.5q-171 0 -273 96.5 t-102 258.5zM317 338q0 -101 61 -157t169 -56q152 0 239 105.5t88 291.5v41h-172h-61q-161 0 -242.5 -56.5t-81.5 -168.5zM279 1638h198l281 -376h-154z" />
<glyph unicode="&#xe1;" d="M133 326q0 187 125.5 284t368.5 97h247v29q-1 134 -68 194.5t-214 60.5q-94 0 -190 -27t-187 -79v184q102 39 195.5 58.5t181.5 19.5q139 0 237.5 -41t159.5 -123q38 -50 54 -123.5t16 -220.5v-639h-185v166q-59 -100 -148.5 -147.5t-217.5 -47.5q-171 0 -273 96.5 t-102 258.5zM317 338q0 -101 61 -157t169 -56q152 0 239 105.5t88 291.5v41h-172h-61q-161 0 -242.5 -56.5t-81.5 -168.5zM475 1262l281 376h198l-325 -376h-154z" />
<glyph unicode="&#xe2;" d="M133 326q0 187 125.5 284t368.5 97h247v29q-1 134 -68 194.5t-214 60.5q-94 0 -190 -27t-187 -79v184q102 39 195.5 58.5t181.5 19.5q139 0 237.5 -41t159.5 -123q38 -50 54 -123.5t16 -220.5v-639h-185v166q-59 -100 -148.5 -147.5t-217.5 -47.5q-171 0 -273 96.5 t-102 258.5zM317 338q0 -101 61 -157t169 -56q152 0 239 105.5t88 291.5v41h-172h-61q-161 0 -242.5 -56.5t-81.5 -168.5zM297 1262l246 376h147l246 -376h-139l-181 245l-180 -245h-139z" />
<glyph unicode="&#xe3;" d="M133 326q0 187 125.5 284t368.5 97h247v29q-1 134 -68 194.5t-214 60.5q-94 0 -190 -27t-187 -79v184q102 39 195.5 58.5t181.5 19.5q139 0 237.5 -41t159.5 -123q38 -50 54 -123.5t16 -220.5v-639h-185v166q-59 -100 -148.5 -147.5t-217.5 -47.5q-171 0 -273 96.5 t-102 258.5zM317 338q0 -101 61 -157t169 -56q152 0 239 105.5t88 291.5v41h-172h-61q-161 0 -242.5 -56.5t-81.5 -168.5zM287 1309q1 134 52 208t142 74q39 0 71 -14t69 -47l57 -55q21 -20 37.5 -29.5t29.5 -9.5q39 0 57 37t19 118h125q-1 -134 -52 -208t-142 -74 q-39 0 -71 14t-69 47l-57 55q-21 20 -37.5 29.5t-30.5 9.5q-38 0 -56 -37t-20 -118h-124z" />
<glyph unicode="&#xe4;" d="M133 326q0 187 125.5 284t368.5 97h247v29q-1 134 -68 194.5t-214 60.5q-94 0 -190 -27t-187 -79v184q102 39 195.5 58.5t181.5 19.5q139 0 237.5 -41t159.5 -123q38 -50 54 -123.5t16 -220.5v-639h-185v166q-59 -100 -148.5 -147.5t-217.5 -47.5q-171 0 -273 96.5 t-102 258.5zM317 338q0 -101 61 -157t169 -56q152 0 239 105.5t88 291.5v41h-172h-61q-161 0 -242.5 -56.5t-81.5 -168.5zM319 1350v202h203v-202h-203zM711 1350v202h202v-202h-202z" />
<glyph unicode="&#xe5;" d="M133 326q0 187 125.5 284t368.5 97h247v29q-1 134 -68 194.5t-214 60.5q-94 0 -190 -27t-187 -79v184q102 39 195.5 58.5t181.5 19.5q139 0 237.5 -41t159.5 -123q38 -50 54 -123.5t16 -220.5v-639h-185v166q-59 -100 -148.5 -147.5t-217.5 -47.5q-171 0 -273 96.5 t-102 258.5zM317 338q0 -101 61 -157t169 -56q152 0 239 105.5t88 291.5v41h-172h-61q-161 0 -242.5 -56.5t-81.5 -168.5zM342 1524q0 115 79.5 194.5t194.5 79.5q116 0 195.5 -79.5t79.5 -194.5t-79.5 -195t-195.5 -80q-115 0 -194.5 80t-79.5 195zM465 1524 q0 -65 43.5 -108.5t107.5 -43.5t108 44t44 108q0 63 -44 107t-108 44t-107.5 -43.5t-43.5 -107.5z" />
<glyph unicode="&#xe6;" d="M41 307q0 171 100 260.5t291 89.5h117v88q0 120 -49.5 184t-143.5 64q-56 0 -122 -21.5t-128 -60.5v168q77 35 143 51.5t126 16.5q91 0 153 -31.5t99 -95.5q33 61 99 94t155 33q174 0 246.5 -118.5t72.5 -424.5v-90h-491q-1 -15 -1.5 -32.5t-0.5 -51.5q0 -161 50.5 -233 t162.5 -72q79 0 143.5 25.5t114.5 76.5v-172q-55 -41 -121 -62.5t-137 -21.5q-110 0 -184.5 41t-106.5 119q-39 -80 -105.5 -120t-163.5 -40q-156 0 -237.5 86t-81.5 250zM205 311q0 -89 44.5 -137.5t127.5 -48.5q92 0 129 66.5t37 250.5v72h-49q-169 0 -229 -45t-60 -158z M709 657h327v52q0 151 -38.5 217.5t-125.5 66.5t-125 -68t-38 -225v-43z" />
<glyph unicode="&#xe7;" d="M499 -240q34 -17 71.5 -24.5t84.5 -7.5q58 0 88.5 24t30.5 70q0 30 -22 73.5t-66 104.5h118q56 -62 82.5 -114.5t26.5 -100.5q0 -89 -60 -134.5t-178 -45.5q-45 0 -88.5 6t-87.5 18v131zM195 559q0 276 146.5 432t406.5 156q81 0 158 -21t155 -65v-193q-73 65 -146.5 94 t-166.5 29q-173 0 -266 -112t-93 -320q0 -207 93.5 -319.5t265.5 -112.5q96 0 172 29.5t141 91.5v-191q-74 -43 -152.5 -64.5t-160.5 -21.5q-260 0 -406.5 156t-146.5 432z" />
<glyph unicode="&#xe8;" d="M123 559q0 268 144 428t384 160q214 0 337.5 -145t123.5 -396v-90h-797v-6q0 -183 95.5 -283t269.5 -100q88 0 184 28t205 85v-183q-105 -43 -202.5 -64.5t-188.5 -21.5q-261 0 -408 156.5t-147 431.5zM322 659l606 1q-4 162 -76.5 246.5t-208.5 84.5q-133 0 -219 -88 t-102 -244zM293 1638h198l281 -376h-154z" />
<glyph unicode="&#xe9;" d="M123 559q0 268 144 428t384 160q214 0 337.5 -145t123.5 -396v-90h-797v-6q0 -183 95.5 -283t269.5 -100q88 0 184 28t205 85v-183q-105 -43 -202.5 -64.5t-188.5 -21.5q-261 0 -408 156.5t-147 431.5zM322 659l606 1q-4 162 -76.5 246.5t-208.5 84.5q-133 0 -219 -88 t-102 -244zM489 1262l281 376h198l-325 -376h-154z" />
<glyph unicode="&#xea;" d="M123 559q0 268 144 428t384 160q214 0 337.5 -145t123.5 -396v-90h-797v-6q0 -183 95.5 -283t269.5 -100q88 0 184 28t205 85v-183q-105 -43 -202.5 -64.5t-188.5 -21.5q-261 0 -408 156.5t-147 431.5zM322 659l606 1q-4 162 -76.5 246.5t-208.5 84.5q-133 0 -219 -88 t-102 -244zM311 1262l246 376h147l246 -376h-139l-181 245l-180 -245h-139z" />
<glyph unicode="&#xeb;" d="M123 559q0 268 144 428t384 160q214 0 337.5 -145t123.5 -396v-90h-797v-6q0 -183 95.5 -283t269.5 -100q88 0 184 28t205 85v-183q-105 -43 -202.5 -64.5t-188.5 -21.5q-261 0 -408 156.5t-147 431.5zM322 659l606 1q-4 162 -76.5 246.5t-208.5 84.5q-133 0 -219 -88 t-102 -244zM333 1350v202h203v-202h-203zM725 1350v202h202v-202h-202z" />
<glyph unicode="&#xec;" d="M178 0v143h365v834h-287v143h471v-977h365v-143h-914zM279 1638h198l281 -376h-154z" />
<glyph unicode="&#xed;" d="M178 0v143h365v834h-287v143h471v-977h365v-143h-914zM475 1262l281 376h198l-325 -376h-154z" />
<glyph unicode="&#xee;" d="M178 0v143h365v834h-287v143h471v-977h365v-143h-914zM297 1262l246 376h147l246 -376h-139l-181 245l-180 -245h-139z" />
<glyph unicode="&#xef;" d="M178 0v143h365v834h-287v143h471v-977h365v-143h-914zM343 1350v202h203v-202h-203zM735 1350v202h202v-202h-202z" />
<glyph unicode="&#xf0;" d="M137 535q0 265 125.5 413t349.5 148q34 0 51.5 -1t32.5 -3q-33 45 -69 89.5t-74 88.5l-279 -92l-30 98l237 80l-182 200h219l127 -145l289 94l33 -98l-250 -80q197 -212 288 -402t91 -390q0 -268 -125.5 -416t-354.5 -148q-228 0 -353.5 148t-125.5 416zM332 535 q0 -196 74 -302t210 -106q137 0 211 106t74 302q0 110 -29 211.5t-79 171.5q-35 13 -76 19.5t-86 6.5q-146 0 -222.5 -105t-76.5 -304z" />
<glyph unicode="&#xf1;" d="M195 0v1120h184v-168q49 96 133 145.5t199 49.5q171 0 255.5 -112.5t84.5 -340.5v-694h-185v694q0 151 -53 222t-166 71q-129 0 -198.5 -91.5t-69.5 -262.5v-633h-184zM287 1309q1 134 52 208t142 74q39 0 71 -14t69 -47l57 -55q21 -20 37.5 -29.5t29.5 -9.5q39 0 57 37 t19 118h125q-1 -134 -52 -208t-142 -74q-39 0 -71 14t-69 47l-57 55q-21 20 -37.5 29.5t-30.5 9.5q-38 0 -56 -37t-20 -118h-124z" />
<glyph unicode="&#xf2;" d="M137 559q0 286 123 437t356 151t356.5 -151t123.5 -437q0 -287 -123 -437.5t-357 -150.5q-233 0 -356 150.5t-123 437.5zM332 559q0 -213 72 -322.5t212 -109.5q141 0 213 109.5t72 322.5q0 214 -72 323t-213 109q-140 0 -212 -109t-72 -323zM279 1638h198l281 -376h-154 z" />
<glyph unicode="&#xf3;" d="M137 559q0 286 123 437t356 151t356.5 -151t123.5 -437q0 -287 -123 -437.5t-357 -150.5q-233 0 -356 150.5t-123 437.5zM332 559q0 -213 72 -322.5t212 -109.5q141 0 213 109.5t72 322.5q0 214 -72 323t-213 109q-140 0 -212 -109t-72 -323zM475 1262l281 376h198 l-325 -376h-154z" />
<glyph unicode="&#xf4;" d="M137 559q0 286 123 437t356 151t356.5 -151t123.5 -437q0 -287 -123 -437.5t-357 -150.5q-233 0 -356 150.5t-123 437.5zM332 559q0 -213 72 -322.5t212 -109.5q141 0 213 109.5t72 322.5q0 214 -72 323t-213 109q-140 0 -212 -109t-72 -323zM297 1262l246 376h147 l246 -376h-139l-181 245l-180 -245h-139z" />
<glyph unicode="&#xf5;" d="M137 559q0 286 123 437t356 151t356.5 -151t123.5 -437q0 -287 -123 -437.5t-357 -150.5q-233 0 -356 150.5t-123 437.5zM332 559q0 -213 72 -322.5t212 -109.5q141 0 213 109.5t72 322.5q0 214 -72 323t-213 109q-140 0 -212 -109t-72 -323zM287 1309q1 134 52 208 t142 74q39 0 71 -14t69 -47l57 -55q21 -20 37.5 -29.5t29.5 -9.5q39 0 57 37t19 118h125q-1 -134 -52 -208t-142 -74q-39 0 -71 14t-69 47l-57 55q-21 20 -37.5 29.5t-30.5 9.5q-38 0 -56 -37t-20 -118h-124z" />
<glyph unicode="&#xf6;" d="M137 559q0 286 123 437t356 151t356.5 -151t123.5 -437q0 -287 -123 -437.5t-357 -150.5q-233 0 -356 150.5t-123 437.5zM332 559q0 -213 72 -322.5t212 -109.5q141 0 213 109.5t72 322.5q0 214 -72 323t-213 109q-140 0 -212 -109t-72 -323zM319 1350v202h203v-202h-203 zM711 1350v202h202v-202h-202z" />
<glyph unicode="&#xf7;" d="M88 557v170h1057v-170h-1057zM494 150v245h245v-245h-245zM494 889v246h245v-246h-245z" />
<glyph unicode="&#xf8;" d="M47 -20l170 200q-39 71 -59.5 168.5t-20.5 210.5q0 286 123 437t356 151q100 0 179 -27.5t139 -83.5l147 176l93 -77l-164 -195q42 -66 64 -162.5t22 -218.5q0 -287 -123 -437.5t-357 -150.5q-103 0 -181.5 29.5t-135.5 89.5l-160 -186zM328 575q0 -48 7 -106t21 -129 l461 557q-35 48 -84.5 71t-116.5 23q-139 0 -213.5 -107t-74.5 -309zM414 221q36 -47 86.5 -70.5t115.5 -23.5q141 0 213 109.5t72 322.5q0 52 -6 107.5t-18 113.5z" />
<glyph unicode="&#xf9;" d="M195 424v694h184v-694q0 -151 53.5 -222t165.5 -71q130 0 199 91.5t69 262.5v633h185v-1118h-185v168q-49 -97 -133.5 -147t-197.5 -50q-172 0 -256 112.5t-84 340.5zM279 1638h198l281 -376h-154z" />
<glyph unicode="&#xfa;" d="M195 424v694h184v-694q0 -151 53.5 -222t165.5 -71q130 0 199 91.5t69 262.5v633h185v-1118h-185v168q-49 -97 -133.5 -147t-197.5 -50q-172 0 -256 112.5t-84 340.5zM475 1262l281 376h198l-325 -376h-154z" />
<glyph unicode="&#xfb;" d="M195 424v694h184v-694q0 -151 53.5 -222t165.5 -71q130 0 199 91.5t69 262.5v633h185v-1118h-185v168q-49 -97 -133.5 -147t-197.5 -50q-172 0 -256 112.5t-84 340.5zM297 1262l246 376h147l246 -376h-139l-181 245l-180 -245h-139z" />
<glyph unicode="&#xfc;" d="M195 424v694h184v-694q0 -151 53.5 -222t165.5 -71q130 0 199 91.5t69 262.5v633h185v-1118h-185v168q-49 -97 -133.5 -147t-197.5 -50q-172 0 -256 112.5t-84 340.5zM319 1350v202h203v-202h-203zM711 1350v202h202v-202h-202z" />
<glyph unicode="&#xfd;" d="M104 1120h195l332 -876l327 876h195l-295 -760q-46 -117 -117 -308q-99 -264 -133 -322q-46 -78 -115 -117t-161 -39h-148v154h109q81 0 127 47t117 243zM475 1262l281 376h198l-325 -376h-154z" />
<glyph unicode="&#xfe;" d="M190 -426v1993h185v-590q46 83 122.5 126.5t176.5 43.5q203 0 318.5 -157t115.5 -435q0 -273 -116 -428.5t-318 -155.5q-102 0 -178.5 43.5t-120.5 126.5v-567h-185zM375 559q0 -212 69 -322t203 -110q133 0 200.5 109t67.5 323t-67.5 323t-200.5 109q-134 0 -203 -109.5 t-69 -322.5z" />
<glyph unicode="&#xff;" d="M104 1120h195l332 -876l327 876h195l-295 -760q-46 -117 -117 -308q-99 -264 -133 -322q-46 -78 -115 -117t-161 -39h-148v154h109q81 0 127 47t117 243zM319 1350v202h203v-202h-203zM711 1350v202h202v-202h-202z" />
<glyph unicode="&#x131;" d="M178 0v143h365v834h-287v143h471v-977h365v-143h-914z" />
<glyph unicode="&#x152;" d="M72 745q0 417 122 582.5t418 165.5h594v-170h-358v-442h328v-170h-328v-541h369v-170h-605q-295 0 -417.5 166.5t-122.5 578.5zM274 745q0 -346 69.5 -460.5t246.5 -114.5h61v1153h-61q-177 0 -246.5 -115t-69.5 -463z" />
<glyph unicode="&#x153;" d="M14 559q0 312 85 450t274 138q89 0 153 -31t111 -96q37 62 102 94.5t152 32.5q175 0 247 -118.5t72 -424.5v-90h-491v-84q0 -163 49.5 -235t161.5 -72q80 0 145.5 26.5t112.5 77.5v-172q-59 -43 -121.5 -63.5t-136.5 -20.5q-98 0 -171.5 33.5t-121.5 99.5 q-52 -68 -116 -100.5t-148 -32.5q-189 0 -274 138t-85 450zM190 559q0 -269 40 -352.5t143 -83.5q102 0 143 84t41 323q0 291 -40 378t-144 87q-103 0 -143 -83.5t-40 -352.5zM719 657h328q0 11 1 30t1 28q0 145 -40 212.5t-126 67.5q-87 0 -125.5 -68.5t-38.5 -226.5v-43z " />
<glyph unicode="&#x178;" d="M37 1493h215l364 -659l363 659h217l-479 -823v-670h-203v670zM319 1667v203h203v-203h-203zM711 1667v203h202v-203h-202z" />
<glyph unicode="&#x2c6;" d="M297 1262l246 376h147l246 -376h-139l-181 245l-180 -245h-139z" />
<glyph unicode="&#x2da;" d="M342 1524q0 115 79.5 194.5t194.5 79.5q116 0 195.5 -79.5t79.5 -194.5t-79.5 -195t-195.5 -80q-115 0 -194.5 80t-79.5 195zM465 1524q0 -65 43.5 -108.5t107.5 -43.5t108 44t44 108q0 63 -44 107t-108 44t-107.5 -43.5t-43.5 -107.5z" />
<glyph unicode="&#x2dc;" d="M287 1309q1 134 52 208t142 74q39 0 71 -14t69 -47l57 -55q21 -20 37.5 -29.5t29.5 -9.5q39 0 57 37t19 118h125q-1 -134 -52 -208t-142 -74q-39 0 -71 14t-69 47l-57 55q-21 20 -37.5 29.5t-30.5 9.5q-38 0 -56 -37t-20 -118h-124z" />
<glyph unicode="&#x327;" d="M395 -240q34 -17 71.5 -24.5t84.5 -7.5q58 0 88.5 24t30.5 70q0 30 -22 73.5t-66 104.5h118q56 -62 82.5 -114.5t26.5 -100.5q0 -89 -60 -134.5t-178 -45.5q-45 0 -88.5 6t-87.5 18v131z" />
<glyph unicode="&#x2000;" horiz-adv-x="950" />
<glyph unicode="&#x2001;" horiz-adv-x="1901" />
<glyph unicode="&#x2002;" horiz-adv-x="950" />
<glyph unicode="&#x2003;" horiz-adv-x="1901" />
<glyph unicode="&#x2004;" horiz-adv-x="633" />
<glyph unicode="&#x2005;" horiz-adv-x="475" />
<glyph unicode="&#x2006;" horiz-adv-x="316" />
<glyph unicode="&#x2007;" horiz-adv-x="316" />
<glyph unicode="&#x2008;" horiz-adv-x="237" />
<glyph unicode="&#x2009;" horiz-adv-x="380" />
<glyph unicode="&#x200a;" horiz-adv-x="105" />
<glyph unicode="&#x2010;" d="M356 479v164h521v-164h-521z" />
<glyph unicode="&#x2011;" d="M356 479v164h521v-164h-521z" />
<glyph unicode="&#x2012;" d="M356 479v164h521v-164h-521z" />
<glyph unicode="&#x2013;" d="M0 492v141h1233v-141h-1233z" />
<glyph unicode="&#x2014;" d="M0 492v141h1233v-141h-1233z" />
<glyph unicode="&#x2018;" d="M463 967v207l196 382h154l-98 -382v-207h-252z" />
<glyph unicode="&#x2019;" d="M463 967l98 383v206h252v-206l-197 -383h-153z" />
<glyph unicode="&#x201a;" d="M403 -287l99 383v207h252v-207l-197 -383h-154z" />
<glyph unicode="&#x201c;" d="M211 967v207l199 382h153l-98 -382v-207h-254zM672 967v207l196 382h154l-98 -382v-207h-252z" />
<glyph unicode="&#x201d;" d="M211 967l98 383v206h252v-206l-196 -383h-154zM670 967l98 383v206h252v-206l-197 -383h-153z" />
<glyph unicode="&#x201e;" d="M211 -287l98 383v207h252v-207l-196 -383h-154zM670 -287l98 383v207h252v-207l-197 -383h-153z" />
<glyph unicode="&#x2022;" d="M319 762q0 124 86 209.5t211 85.5q124 0 210.5 -86t86.5 -209q0 -124 -87 -210.5t-212 -86.5q-124 0 -209.5 85.5t-85.5 211.5z" />
<glyph unicode="&#x2026;" d="M80 0v305h252v-305h-252zM489 0v305h252v-305h-252zM899 0v305h252v-305h-252z" />
<glyph unicode="&#x202f;" horiz-adv-x="380" />
<glyph unicode="&#x2039;" d="M346 559v82l469 418v-191l-301 -268l301 -268v-191z" />
<glyph unicode="&#x203a;" d="M420 141v191l301 268l-301 268v191l469 -418v-82z" />
<glyph unicode="&#x205f;" horiz-adv-x="475" />
<glyph unicode="&#x2074;" d="M268 854v121l363 528h162v-538h116v-111h-116v-186h-138v186h-387zM381 965h274v413z" />
<glyph unicode="&#x20ac;" d="M37 543l49 110h117q-1 12 -2 32q-2 45 -2 60q0 18 2 65q1 19 2 30h-166l49 108h125q48 283 185 427.5t360 144.5q84 0 157.5 -20t147.5 -62v-207q-66 61 -145.5 95t-157.5 34q-146 0 -233 -104t-111 -308h481l-49 -108h-442q-2 -20 -2.5 -42.5t-0.5 -68.5q0 -15 0.5 -34 t1.5 -42h361l-49 -110h-301q23 -203 110 -307.5t234 -104.5q79 0 157.5 33.5t145.5 95.5v-207q-72 -42 -146 -62t-159 -20q-226 0 -363.5 144t-181.5 428h-174z" />
<glyph unicode="&#x2122;" d="M0 1399v94h438v-94h-162v-484h-114v484h-162zM522 915v578h170l137 -256l125 256h172v-578h-114v482l-156 -301h-55l-166 301v-482h-113z" />
<glyph unicode="&#xe000;" horiz-adv-x="1120" d="M0 1120h1120v-1120h-1120v1120z" />
<glyph unicode="&#xfb01;" d="M35 977v143h201v78q0 184 84.5 271t263.5 87h192v-153h-180q-99 0 -137.5 -40.5t-38.5 -143.5v-101h659v-1118h-184v977h-475v-977h-184v977h-201zM895 1321v233h184v-233h-184z" />
<glyph unicode="&#xfb02;" d="M35 977v143h201v78q0 184 84.5 271t263.5 87h495v-1556h-184v1403h-299q-99 0 -137.5 -40.5t-38.5 -143.5v-101h293v-141h-293v-977h-184v977h-201z" />
<glyph unicode="&#xfb03;" horiz-adv-x="3699" d="M2644 0v143h365v834h-287v143h471v-977h365v-143h-914zM3009 1323v233h184v-233h-184zM1428 977v143h299v78q0 184 84.5 271t263.5 87h221v-153h-209q-99 0 -137.5 -40.5t-38.5 -143.5v-99h385v-143h-385v-977h-184v977h-299zM195 977v143h299v78q0 184 84.5 271 t263.5 87h221v-153h-209q-99 0 -137.5 -40.5t-38.5 -143.5v-99h385v-143h-385v-977h-184v977h-299z" />
<glyph unicode="&#xfb04;" horiz-adv-x="3699" d="M2626 1423v144h479v-1161q0 -124 45.5 -187t134.5 -63h215v-156h-233q-165 0 -255.5 106t-90.5 300v1017h-295zM1428 977v143h299v78q0 184 84.5 271t263.5 87h221v-153h-209q-99 0 -137.5 -40.5t-38.5 -143.5v-99h385v-143h-385v-977h-184v977h-299zM195 977v143h299v78 q0 184 84.5 271t263.5 87h221v-153h-209q-99 0 -137.5 -40.5t-38.5 -143.5v-99h385v-143h-385v-977h-184v977h-299z" />
<glyph d="M319 1294v203h203v-203h-203zM711 1294v203h202v-203h-202z" />
<glyph d="M475 1262l197 264h186l-229 -264h-154z" />
<glyph d="M287 1294q0 101 51.5 160t136.5 59q36 0 66.5 -8t79.5 -35l57 -30q22 -13 39.5 -19t32.5 -6q31 0 51 25.5t20 66.5v6h125q-2 -100 -53 -159.5t-135 -59.5q-34 0 -64 8t-82 35l-57 33q-25 14 -40.5 19.5t-27.5 5.5q-35 0 -55 -25t-20 -70v-6h-125z" />
<glyph d="M377 1526h184l197 -264h-154z" />
<glyph d="M311 1262l211 266h189l211 -266h-140l-166 178l-165 -178h-140z" />
<glyph d="M27 612l1060 262l27 -108l-1063 -262z" />
</font>
</defs>
</svg>
