<?xml version="1.0" standalone="no"?>
<!DOCTYPE svg PUBLIC "-//W3C//DTD SVG 1.1//EN" "http://www.w3.org/Graphics/SVG/1.1/DTD/svg11.dtd" >
<svg xmlns="http://www.w3.org/2000/svg">
<metadata>
This is a custom SVG webfont generated by Font Squirrel.
Designer    : Fonts For Flash
Foundry     : Fonts For Flash
Foundry URL : http://www.fontsforflash.com
</metadata>
<defs>
<font id="webfontSSua0Ykc" horiz-adv-x="625" >
<font-face units-per-em="1000" ascent="800" descent="-200" />
<missing-glyph horiz-adv-x="375" />
<glyph unicode=" "  horiz-adv-x="375" />
<glyph unicode="&#x09;" horiz-adv-x="375" />
<glyph unicode="&#xa0;" horiz-adv-x="375" />
<glyph unicode="!" horiz-adv-x="250" d="M125 247h-125v632h125v-632zM125 -4h-125v133h125v-133z" />
<glyph unicode="&#x22;" horiz-adv-x="500" d="M243 500v375h132v-375h-132zM0 500v375h125v-375h-125z" />
<glyph unicode="#" horiz-adv-x="750" d="M250 0h-132v247h-118v132h118v118h-118v132h118v246h132v-246h118v246h132v-246h125v-132h-125v-118h125v-132h-125v-247h-132v247h-118v-247zM250 379h118v118h-118v-118z" />
<glyph unicode="$" d="M434 247v-58h-59v-193h-132v126h-243v132h368v118h-250v67h-59v58h-59v132h59v60h59v65h125v125h132v-125h125v-132h-375v-118h250v-65h59v-60h66v-132h-66z" />
<glyph unicode="%" horiz-adv-x="1000" d="M124 -2v129h62v62h63v188h125v125h62v62h63v188h125v125h128v-128h-63v-63h-62v-187h-125v-125h-63v-63h-62v-187h-125v-126h-128zM252 500v-1h-127v82h-37v44h-88v125h82v42h43v85h125v-91h40v-36h87v-126h-2v1h-88v-38h-37v-87h2zM590 250v34h35v91h-1v2h126v-90h39 v-37h86v-125h-86v-37h-39v-88h-125v88h-38v37h-87v-1h-1v128h1v-2h90zM627 249v-122h122v122h-122zM127 627h122v122h-122v-122z" />
<glyph unicode="&#x26;" horiz-adv-x="750" d="M82 375v45h43v47h-1v32h-124v253h61v62h63v63h128v-63h62v-62h63v-253h-2v1h-76v-48h-49v-32h2v-43h125v-2h-2v-125h125v125h-1v2h1v123h125v-251h-123v-38h-2v-86h125v-125h-126v124h-41v1h-47v-49h-36v-76h-250v70h-40v55h-85v252h32v-2h50zM127 127h247v122h-125v125 h-122v-247zM127 502h122v247h-122v-247z" />
<glyph unicode="'" horiz-adv-x="250" d="M125 497h-125v382h125v-382z" />
<glyph unicode="(" horiz-adv-x="375" d="M250 0v-125h-132v61h-59v60h-59v883h59v57h59v64h132v-125h-125v-875h125z" />
<glyph unicode=")" horiz-adv-x="375" d="M125 -64v-65h-125v133h118v868h-118v132h125v-68h59v-57h66v-883h-66v-60h-59z" />
<glyph unicode="*" horiz-adv-x="750" d="M250 122h-132v132h125v118h-243v132h243v118h-125v132h132v-125h118v125h132v-132h-125v-118h250v-132h-250v-118h125v-132h-132v125h-118v-125z" />
<glyph unicode="+" horiz-adv-x="750" d="M243 367h-243v132h243v250h132v-250h250v-132h-250v-251h-132v251z" />
<glyph unicode="," horiz-adv-x="375" d="M184 -129v-52h-59v-73h-125v132h118v251h132v-258h-66z" />
<glyph unicode="-" horiz-adv-x="500" d="M375 375h-375v124h375v-124z" />
<glyph unicode="." horiz-adv-x="250" d="M0 129h125v-133h-125v133z" />
<glyph unicode="/" d="M7 0v250h75v43h43v207h90v43h35v207h88v39h37v86h125v-128h-118v-250h-125v-250h-125v-251h-132v4h7z" />
<glyph unicode="0" d="M375 0h-257v64h-59v58h-59v632h59v60h59v61h257v-61h59v-60h66v-632h-66v-58h-59v-64zM125 129h243v618h-243v-618z" />
<glyph unicode="1" horiz-adv-x="375" d="M250 -4h-132v626h-118v132h118v125h132v-883z" />
<glyph unicode="2" d="M59 314h59v65h66v60h59v65h125v243h-243v-125h-125v132h59v60h59v65h257v-65h59v-60h66v-257h-66v-58h-59v-67h-125v-125h-125v-118h375v-129h-500v254h59v60z" />
<glyph unicode="3" d="M375 0h-257v64h-59v58h-59v132h125v-125h243v243h-250v132h250v243h-243v-125h-125v132h59v60h59v61h257v-61h59v-60h66v-257h-125v-118h125v-257h-66v-58h-59v-64z" />
<glyph unicode="4" horiz-adv-x="750" d="M500 0h-126v249h-374v253h124v125h62v62h63v63h62v62h63v63h126v-502h125v-125h-125v-250zM127 436v-59h247v247h-122v-125h-63v-63h-62z" />
<glyph unicode="5" d="M118 64h-56v58h-62v132h125v-125h243v368h-368v382h500v-132h-375v-118h250v-65h62v-60h63v-382h-63v-58h-62v-68h-257v68z" />
<glyph unicode="6" d="M118 64h-59v58h-59v632h59v60h59v65h257v-65h59v-60h66v-132h-132v125h-243v-243h250v-65h59v-60h66v-257h-66v-58h-59v-68h-257v68zM125 129h243v243h-243v-243z" />
<glyph unicode="7" d="M118 -4v254h90v41h42v209h85v43h40v207h-87v-3h-288v132h500v-382h-89v-33h-36v-217h-93v-33h-32v-218h-132z" />
<glyph unicode="8" d="M375 439h61v-60h64v-257h-66v-58h-59v-68h-257v68h-59v58h-59v257h61v60h57v58h-118v257h59v60h59v65h257v-65h59v-60h66v-257h-125v-58zM125 129h243v243h-243v-243zM125 504h243v243h-243v-243z" />
<glyph unicode="9" d="M118 64h-59v58h-59v132h125v-125h243v243h-250v67h-59v58h-59v257h59v60h59v65h257v-65h59v-60h66v-632h-66v-58h-59v-68h-257v68zM125 504h243v243h-243v-243z" />
<glyph unicode=":" horiz-adv-x="250" d="M125 372h-125v132h125v-132zM0 125h125v-125h-125v125z" />
<glyph unicode=";" horiz-adv-x="375" d="M186 -129v-59h-61v-66h-125v132h118v251h132v-258h-64zM250 372h-132v132h132v-132z" />
<glyph unicode="&#x3c;" horiz-adv-x="750" d="M461 250h-211v91h-39v34h-211v125h208v33h42v92h208v38h42v87h125v-125h-125v-125h-250v-125h250v-125h125v-125h-125v90h-39v35z" />
<glyph unicode="=" horiz-adv-x="750" d="M375 492h-375v132h375v1h250v-125h-250v-8zM375 242h-375v132h375v1h250v-125h-250v-8z" />
<glyph unicode="&#x3e;" horiz-adv-x="750" d="M164 215h-39v-90h-125v125h125v125h250v125h-250v125h-125v125h125v-87h42v-38h208v-92h42v-33h208v-125h-211v-34h-39v-91h-211v-35z" />
<glyph unicode="?" d="M311 372v-58h-61v-67h-132v132h125v125h125v243h-243v-125h-125v132h61v60h57v65h257v-65h61v-60h64v-257h-64v-58h-61v-67h-64zM250 -4h-132v133h132v-133z" />
<glyph unicode="@" horiz-adv-x="1000" d="M186 -64v62h-62v63h-63v63h-61v503h61v62h63v63h62v62h63v61h378v-61h62v-62h63v-63h62v-62h61v-378h-61v-63h-62v-62h-128v62h-63v63h-59v-125h-128v62h-63v63h-62v253h62v62h63v63h128v-63h62v-62h63v-250h122v372h-125v125h-372v-125h-125v-497h125v-125h437v-66h-62 v-61h-378v61h-63zM377 252h122v247h-60l-64 1l2 -64v-184z" />
<glyph unicode="A" d="M0 750h63v58h62v67h250v-67h60v-58h65v-750h-125v250h-250v-250h-125v750zM125 750v-375h250v375h-250z" />
<glyph unicode="B" d="M434 122v-61h-59v-61h-375v875h375v-64h59v-57h66v-257h-125v-118h125v-257h-66zM125 747v-243h243v243h-243zM125 129h243v243h-243v-243z" />
<glyph unicode="C" d="M118 69h-59v53h-59v632h59v65h59v60h257v-60h59v-63h-59v-2h125v-132h-132v125h-243v-618h243v125h132v-132h-66v-53h-59v-73h-257v73z" />
<glyph unicode="D" d="M434 123v-54h-59v-69h-375v880h375v-61h59v-63h-59v-1h125v-632h-66zM125 130h243v618h-243v-618z" />
<glyph unicode="E" d="M500 125v-127h-500v879h500v-127h-375v-250h252v-125h-252v-250h375z" />
<glyph unicode="F" d="M0 -2v2h2v877h498v-128h-371v-247h250v-128h-250v-376h-129z" />
<glyph unicode="G" d="M434 122v-58h-59v-68h-257v68h-59v58h-59v632h59v60h59v65h257v-65h59v-60h66v-132h-132v125h-243v-618h243v243h-125v132h257v-382h-66z" />
<glyph unicode="H" d="M125 -4h-125v883h125v-375h243v375h132v-883h-132v376h-243v-376z" />
<glyph unicode="I" horiz-adv-x="250" d="M125 -4h-125v883h125v-883z" />
<glyph unicode="J" horiz-adv-x="500" d="M250 125v125h-1v627h126v-753h-61v-63h-62v-61h-252v127h65v-2h185z" />
<glyph unicode="K" d="M368 189h-59v58h-66v67h-59v58h-59v-376h-125v883h125v-375h59v60h59v65h66v60h59v190h132v-257h-125v-125h-125v-118h125v-125h125v-258h-132v193z" />
<glyph unicode="L" d="M500 129v-129h-125v-4h-375v883h125v-750h375z" />
<glyph unicode="M" horiz-adv-x="750" d="M0 -2v879h127v-188h62v-62h63v-125h122v125h62v62h63v188h126v-879h-126v501h-60v-63h-62v-250h-66v63h-62v187h-63v63h-59v-501h-127z" />
<glyph unicode="N" d="M374 0v311h-63v63h-62v62h-63v63h-59v-499h-127v877h127v-188h62v-62h63v-125h122v375h126v-877h-126z" />
<glyph unicode="O" d="M118 64h-59v58h-59v632h59v60h59v65h257v-65h59v-60h66v-632h-66v-58h-59v-68h-257v68zM125 129h243v618h-243v-618z" />
<glyph unicode="P" d="M434 372v-58h-59v-67h-250v-251h-125v883h375v-65h59v-60h66v-382h-66zM125 747v-368h243v368h-243z" />
<glyph unicode="Q" d="M368 -63h-59v59h-191v67h-59v59h-59v632h59v59h59v66h257v-66h59v-59h66v-632h-66v-59h-59v-59h125v-133h-132v66zM125 129h243v618h-243v-618z" />
<glyph unicode="R" d="M375 189h59v-60h66v-129h-132v122h-125v125h-118v-247h-125v879h375v-65h59v-60h66v-382h-66v-58h-59v-125zM125 747v-368h243v368h-243z" />
<glyph unicode="S" d="M118 69h-59v53h-59v132h125v-125h243v243h-250v72h-59v53h-59v257h118v2h-59v63h59v60h257v-60h59v-63h-59v-2h125v-132h-132v125h-243v-243h250v-60h59v-63h-59v-2h125v-257h-66v-53h-59v-73h-257v73z" />
<glyph unicode="T" horiz-adv-x="500" d="M250 -4h-132v751h-118v132h375v-132h-125v-751z" />
<glyph unicode="U" d="M434 122v-61h-59v-65h-257v65h-59v61h-59v757h125v-750h243v750h132v-757h-66z" />
<glyph unicode="V" d="M250 0h-125v79h-49v46h-76v754h125v-754h125v125h125v625h125v-625h-83v-53h-42v-72h-76v-46h-49v-79z" />
<glyph unicode="W" horiz-adv-x="750" d="M310 247v-58h-60v-193h-132v193h-58v58h-60v632h125v-625h118v375h132v-375h118v625h132v-632h-65v-58h-60v-193h-132v251h-58z" />
<glyph unicode="X" d="M368 347h-27v25h-187v-25h-29v-351h-125v383h118v118h-118v382h125v-345h29v-30h187v30h27v345h132v-382h-125v-118h125v-383h-132v351z" />
<glyph unicode="Y" d="M67 500h-67v379h125v-379h250v379h125v-757h-66v-58h-59v-68h-375v129h375v250h-250v71h-58v54z" />
<glyph unicode="Z" d="M184 372v-58h-59v-185h375v-133h-500v383h118v125h125v125h125v118h-368v132h500v-257h-66v-58h-59v-67h-66v-58h-59v-67h-66z" />
<glyph unicode="[" horiz-adv-x="375" d="M250 -129h-250v1133h250v-132h-125v-868h125v-133z" />
<glyph unicode="\" d="M500 250v-254h-132v251h-125v250h-125v250h-118v128h125v-89h39v-36h86v-195h40v-55h85v-203h35v-47h90z" />
<glyph unicode="]" horiz-adv-x="375" d="M250 -125h-250v129h118v868h-118v128h250v-1125z" />
<glyph unicode="^" horiz-adv-x="750" d="M500 747h-132v125h-118v-125h-125v-122h-125v125h118v129h125v125h132v-125h125v-129h125v-125h-125v122z" />
<glyph unicode="_" horiz-adv-x="750" d="M375 -254h-375v132h375v-3h250v-125h-250v-4z" />
<glyph unicode="`" horiz-adv-x="375" d="M125 906h28v-27h97v-132h-132v97h-28v28h-90v132h125v-98z" />
<glyph unicode="a" d="M118 64h-59v58h-59v382h59v60h59v65h382v-633h-382v68zM125 129h243v368h-243v-368z" />
<glyph unicode="b" d="M434 122v-58h-59v-68h-375v883h125v-250h250v-65h59v-60h66v-382h-66zM125 129h243v368h-243v-368z" />
<glyph unicode="c" d="M431 122v-63h-56v-63h-257v63h-62v62h62v1h-118v382h56v55h62v70h257v-70h56v-55h69v-132h-132v125h-243v-368h243v125h132v-132h-69z" />
<glyph unicode="d" d="M59 122h-59v382h59v60h59v65h250v250h132v-883h-382v68h-59v58zM368 129v368h-243v-368h243z" />
<glyph unicode="e" d="M500 129v-129h-125v-4h-257v68h-59v58h-59v382h59v60h59v65h257v-65h59v-60h66v-257h-375v-118h375zM125 497v-118h243v118h-243z" />
<glyph unicode="f" horiz-adv-x="500" d="M185 814h58v65h132v-132h-125v-118h125v-132h-125v-501h-132v501h-118v132h118v125h67v60z" />
<glyph unicode="g" d="M56 -126h62v4h250v118h-250v65h-62v61h-56v382h56v57h62v68h382v-758h-69v-60h-56v-65h-257v65h-62v63zM125 129h243v368h-243v-368z" />
<glyph unicode="h" d="M375 561h56v-57h69v-508h-132v501h-243v-501h-125v883h125v-250h250v-68z" />
<glyph unicode="i" horiz-adv-x="250" d="M125 -4h-125v633h125v-633zM125 747h-125v132h125v-132z" />
<glyph unicode="j" horiz-adv-x="250" d="M59 -139v-57h-59v-68h-125v132h118v751h132v-758h-66zM125 737h-132v132h132v-132z" />
<glyph unicode="k" d="M500 0h-132v101h-28v24h-97v101h-28v24h-90v-250h-125v875h125v-493h90v32h28v93h97v32h28v93h132v-132h-97v-24h-28v-101h-97v-24h-28v-62h28v-31h-28v-1h125v-93h28v-31h-28v-1h125v-132z" />
<glyph unicode="l" horiz-adv-x="250" d="M125 0h-125v879h125v-879z" />
<glyph unicode="m" horiz-adv-x="1000" d="M750 564h55v-60h70v-508h-132v501h-243v-501h-132v501h-243v-501h-125v633h750v-65z" />
<glyph unicode="n" d="M368 0v497h-243v-497h-125v625h375v-66h61v-55h64v-504h-132z" />
<glyph unicode="o" d="M118 64h-57v58h-61v382h61v60h57v65h257v-65h61v-60h64v-382h-64v-58h-61v-68h-257v68zM125 129h243v368h-243v-368z" />
<glyph unicode="p" d="M431 122v-61h-56v-65h-250v-250h-125v883h375v-68h56v-57h69v-382h-69zM125 497v-368h243v368h-243z" />
<glyph unicode="q" d="M62 122h-62v382h62v57h56v68h382v-883h-132v250h-250v65h-56v61zM368 497h-243v-368h243v368z" />
<glyph unicode="r" horiz-adv-x="500" d="M127 0h-127v627h375v-128h-186v-63h-62v-436z" />
<glyph unicode="s" horiz-adv-x="500" d="M308 122v-58h-58v-68h-250v133h243v118h-125v67h-60v58h-58v132h58v60h60v65h257v-132h-250v-118h125v-65h58v-60h67v-132h-67z" />
<glyph unicode="t" horiz-adv-x="500" d="M125 875h125v-246h125v-132h-125v-368h125v-133h-132v72h-60v54h-65v375h-118v132h118v125h7v121z" />
<glyph unicode="u" d="M118 64h-57v58h-61v507h125v-500h243v500h132v-633h-382v68z" />
<glyph unicode="v" d="M0 125v504h125v-504h-125zM375 629h125v-504h-125v504zM375 125v-125h-250v125h250z" />
<glyph unicode="w" horiz-adv-x="750" d="M310 247v-58h-60v-193h-132v193h-58v58h-60v382h125v-375h118v250h132v-250h118v375h132v-382h-65v-58h-60v-193h-132v251h-58z" />
<glyph unicode="x" d="M368 224h-28v23h-187v-23h-28v-228h-125v258h118v118h-118v257h125v-217h28v-31h-28v-2h215v33h28v217h132v-257h-125v-118h125v-258h-132v228z" />
<glyph unicode="y" d="M434 -129v-57h-59v-68h-257v132h250v118h-250v68h-59v58h-59v507h125v-500h243v500h132v-758h-66z" />
<glyph unicode="z" horiz-adv-x="500" d="M150 247v-28h-25v-90h250v-133h-375v258h87v28h31v97h94v28h31v90h-243v132h375v-257h-100v-28h-25v-97h-100z" />
<glyph unicode="{" horiz-adv-x="500" d="M185 -4h-67v376h-118v132h118v375h67v60h58v65h132v-132h-125v-375h-125v-118h125v-375h125v-133h-132v68h-58v57z" />
<glyph unicode="|" horiz-adv-x="250" d="M125 -129h-125v1133h125v-1133z" />
<glyph unicode="}" horiz-adv-x="500" d="M183 -4v-57h-58v-68h-125v133h118v375h125v118h-125v375h-118v132h125v-65h58v-60h67v-375h125v-132h-125v-376h-67z" />
<glyph unicode="~" d="M319 375v4h49v125h132v-254h-125v-3h-132v3h7v125h69zM125 375v-128h-125v253h118v4h132v-129h-125z" />
<glyph unicode="&#xa1;" horiz-adv-x="250" d="M125 -4h-125v633h125v-633zM125 747h-125v132h125v-132z" />
<glyph unicode="&#xa2;" d="M250 250v2h124v125h126v-128h-61v-63h-62v-62h-125v-124h-128v186h-63v63h-61v378h61v62h63v63h125v125h128v-188h62v-62h61v-128h-126v125h-124v1h-125v-125h2v-36h-2v-214h125z" />
<glyph unicode="&#xa3;" d="M185 814h58v61h132v-61h60v-60h65v-132h-132v125h-118v-243h125v-132h-125v-243h243l7 -129h-500v129h118v243h-118v132h118v250h67v60z" />
<glyph unicode="&#xa4;" horiz-adv-x="750" d="M500 125v125h-1v2h1v-2h125v-126h-61v-63h-62v-61h-253v61h-63v63h-62v125h-124v128h124v122h-124v128h124v125h62v62h63v61h253v-61h62v-62h61v-127h-126v44h1v81h-80v-1h-168v-122h125v-2h-2v-126h-123v-122h123v-127h2v-1h-125v-122h165v-2h83z" />
<glyph unicode="&#xa5;" horiz-adv-x="750" d="M0 249v128h249v59h-63v63h-62v125h-124v253h127v-188h62v-62h63v-125h122v125h62v62h63v188h126v-253h-123v-125h-63v-63h-62v-59h248v-128h-248v-251h-128v251h-249z" />
<glyph unicode="&#xa6;" horiz-adv-x="250" d="M0 500v504h125v-504h-125zM125 375v-504h-125v504h125z" />
<glyph unicode="&#xa7;" d="M73 250h-73v250h88v36h37v54h-40v35h-85v125h66v51h59v74h375v-125h-375v-125h250v-73h54v-52h71v-250h-68v-51h-57v-38h42v-36h83v-125h-77v-63h-48v-62h-375v125h375v125h-250v71h-52v54zM375 250v250h-250v-250h250z" />
<glyph unicode="&#xa8;" horiz-adv-x="500" d="M0 875h125v-125h-125v125zM250 875h125v-125h-125v125z" />
<glyph unicode="&#xa9;" horiz-adv-x="1000" d="M61 61v63h-61v628h61v62h63v63h628v-63h62v-62h61v-628h-61v-63h-62v-63h-628v63h-63zM127 189h62v-62h497v62h63v497h-63v63h-497v-63h-62v-497zM311 311v63h-62v128h62v62h63v63h253v-128h-250v-122h250v-128h-253v62h-63z" />
<glyph unicode="&#xaa;" horiz-adv-x="500" d="M0 500h64v52h61v73h125v125h-250v125h250v-64h55v-61h70v-500h-250v72h-64v53h-61v125zM125 500v-125h125v125h-125z" />
<glyph unicode="&#xab;" d="M250 125h-125v80h-43v45h-82v250h73v36h52v89h125v-122h3v-3h85v43h37v82h125v-125h-125v-250h125v-125h-125v83h-44v42h-78v-3h-3v-122zM250 250v250h-125v-250h125z" />
<glyph unicode="&#xac;" horiz-adv-x="750" d="M500 375h-500v125h625v-375h-125v250z" />
<glyph unicode="&#xad;" horiz-adv-x="500" d="M375 375h-375v124h375v-124z" />
<glyph unicode="&#x2212;" horiz-adv-x="500" d="M375 375h-375v124h375v-124z" />
<glyph unicode="&#xae;" horiz-adv-x="1000" d="M61 61v63h-61v628h61v62h63v63h628v-63h62v-62h61v-628h-61v-63h-62v-63h-628v63h-63zM127 189h62v-62h497v62h63v497h-63v63h-497v-63h-62v-497zM249 249v378h378v-128h-63v-63h-62v-59h125v-128h-128v62h-63v63h-59v-125h-128z" />
<glyph unicode="&#xaf;" horiz-adv-x="500" d="M0 875h375v-125h-375v125z" />
<glyph unicode="&#x2c9;" horiz-adv-x="500" d="M0 875h375v-125h-375v125z" />
<glyph unicode="&#xb0;" d="M375 375h-250v65h-49v60h-76v250h63v62h62v63h250v-70h57v-55h68v-250h-65v-61h-60v-64zM375 750h-250v-250h250v250z" />
<glyph unicode="&#xb1;" horiz-adv-x="750" d="M0 250h250v125h-250v125h250v250h125v-250h250v-125h-250v-125h250v-125h-625v125z" />
<glyph unicode="&#xb2;" horiz-adv-x="500" d="M203 663h47v87h-250v125h375v-250h-74v-51h-51v-74h125v-125h-375v125h71v49h54v76h78v38z" />
<glyph unicode="&#xb3;" horiz-adv-x="500" d="M250 663h42v-38h83v-125h-65v-55h-60v-70h-250v125h250v125h-125v125h-125v125h375v-125h-80v-40h-45v-47z" />
<glyph unicode="&#xb4;" horiz-adv-x="500" d="M250 1000h125v-125h-125v125zM125 875h125v-125h-125v125z" />
<glyph unicode="&#xb5;" d="M0 629h125v-500h243v500h132v-633h-375v-246h-125v879z" />
<glyph unicode="&#xb6;" horiz-adv-x="750" d="M625 -125h-125v875h-125v-875h-125v500h-125v125h-125v250h125v125h500v-1000z" />
<glyph unicode="&#xb7;" horiz-adv-x="375" d="M125 500h125v-125h-125v125z" />
<glyph unicode="&#xb8;" horiz-adv-x="500" d="M250 -250h-250v125h250v125h125v-125h-63v-61h-62v-64z" />
<glyph unicode="&#xb9;" horiz-adv-x="375" d="M71 805h54v70h125v-500h-125v250h-125v125h71v55z" />
<glyph unicode="&#xba;" horiz-adv-x="500" d="M250 250h-125v66h-46v59h-79v375h82v36h43v93h125v-74h40v-55h85v-375h-66v-72h-59v-53zM250 750h-125v-375h125v375z" />
<glyph unicode="&#xbb;" d="M250 247h-3v3h-78v-42h-44v-83h-125v125h125v250h-125v125h125v-82h37v-43h85v3h3v122h125v-89h52v-36h73v-250h-82v-45h-43v-80h-125v122zM375 250v250h-125v-250h125z" />
<glyph unicode="&#xbc;" horiz-adv-x="1125" d="M375 124h-121v-126h-128v127h82v36h42v28h1v186h124v2h1v123h85v40h39v24h1v188h125v123h128v-125h-91v-37h-38v-213h125v-250h125v250h125v-500h-125v125h-250v374h-121v-125h-4v1h-87v-34h-38v-217zM0 750h66v55h59v70h125v-500h-125v250h-125v125z" />
<glyph unicode="&#xbd;" horiz-adv-x="1125" d="M379 211v-87h-125v-126h-128v127h85v42h39v22h1v188h125v123h82v36h42v28h1v188h125v123h128v-125h-82v-40h-47v-210h375v-250h-72v-50h-53v-75h125v-125h-375v125h63v63h62v62h74v54h51v71h-250v124h-121v-125h-4v1h-77v-34h-48v-130h4zM0 750h64v58h61v67h125v-500 h-125v250h-125v125z" />
<glyph unicode="&#xbe;" horiz-adv-x="1125" d="M375 124h-121v-126h-128v127h79v42h45v22h1v188h125v123h82v49h42v15h1v188h125v123h128v-125h-82v-37h-47v-213h125v-250h125v250h125v-500h-125v125h-250v374h-121v-125h-4v1h-77v-37h-48v-214zM0 500h250v125h-125v125h-125v125h375v-125h-72v-53h-53v-72h125v-125 h-72v-55h-53v-70h-250v125z" />
<glyph unicode="&#xbf;" d="M182 504v57h61v68h132v-132h-125v-125h-125v-244h243v126h132v-133h-68v-60h-57v-61h-257v61h-61v60h-57v258h57v57h61v68h64zM243 879h132v-132h-132v132z" />
<glyph unicode="&#xc0;" d="M375 814h59v-60h66v-758h-132v251h-243v-251h-125v758h59v60h59v65h257v-65zM125 747v-368h243v368h-243zM125 1250h125v-125h125v-125h-125v125h-125v125z" />
<glyph unicode="&#xc1;" d="M0 750h57v58h68v67h250v-64h60v-61h65v-750h-125v250h-250v-250h-125v750zM125 750v-375h250v375h-250zM125 1125h125v-125h-125v125zM250 1250h125v-125h-125v125z" />
<glyph unicode="&#xc2;" d="M375 814h59v-60h66v-758h-132v251h-243v-251h-125v758h59v60h59v65h257v-65zM125 747v-368h243v368h-243zM375 1125h-250v125h250v-125h125v-125h-125v125zM0 1125h125v-125h-125v125z" />
<glyph unicode="&#xc3;" d="M375 814h59v-60h66v-758h-132v251h-243v-251h-125v758h59v60h59v65h257v-65zM250 1125h-125v-125h-125v250h250v-125h125v125h125v-250h-250v125zM125 747v-368h243v368h-243z" />
<glyph unicode="&#xc4;" d="M57 811h68v64h250v-67h57v-58h68v-750h-125v250h-250v-250h-125v750h57v61zM125 750v-375h250v375h-250zM0 1125h125v-125h-125v125zM375 1125h125v-125h-125v125z" />
<glyph unicode="&#xc5;" d="M211 1000h-86v125h77v39h48v86h125v-86h42v-39h83v-125h-83v-38h-42v-148h59v-60h66v-758h-132v251h-243v-251h-125v758h59v60h59v65h132v87h-39v34zM125 747v-368h243v368h-243zM250 1000h125v125h-125v-125z" />
<glyph unicode="&#xc6;" horiz-adv-x="1000" d="M493 819v60h382v-132h-375v-243h250v-132h-250v-243h375v-133h-507v251h-243v-251h-125v758h60v65h58v60h257v-60h118zM125 747v-368h243v368h-243zM435 754v2h-60v-2h60z" />
<glyph unicode="&#xc7;" d="M311 -125v-60h-61v-65h-250v125h250v121h-132v73h-59v53h-59v632h59v65h59v60h257v-60h59v-63h-59v-2h125v-132h-132v125h-243v-618h243v125h132v-132h-66v-53h-59v-194h-64z" />
<glyph unicode="&#xc8;" d="M127 127h373v-127h-500v877h500v-128h-373v-247h250v-128h-250v-247zM249 999v125h-125v128h128v-125h125v-128h-128z" />
<glyph unicode="&#xc9;" d="M500 125v-125h-500v875h500v-125h-375v-250h125v2h127v-127h-252v-250h375zM252 1000h-127v127h124v123h126v-126h-123v-124z" />
<glyph unicode="&#xca;" d="M0 0v877h500v-127h-375v-250h250v2h2v-127h-252v-250h250v2h125v-127h-500zM0 999v128h124v125h253v-125h123v-128h-126v125h-247v-125h-127z" />
<glyph unicode="&#xcb;" d="M127 127h373v-129h-500v879h500v-128h-373v-247h250v-128h-250v-247zM0 999v128h127v-128h-127zM374 1127h126v-128h-126v128z" />
<glyph unicode="&#xcc;" horiz-adv-x="250" d="M2 0v877h123v-877h-123zM4 1127h121v-128h-125v125h-123v126h-2v2h129v-125z" />
<glyph unicode="&#xcd;" horiz-adv-x="250" d="M127 0h-127v877h127v-877zM0 999v128h124v125h126v-128h-123v-125h-127z" />
<glyph unicode="&#xce;" horiz-adv-x="250" d="M0 877h125v-877h-125v877zM-125 999v128h123v125h129v-125h123v-128h-126v125h-122v-125h-127z" />
<glyph unicode="&#xcf;" horiz-adv-x="250" d="M0 875h125v-875h-125v875zM2 1000h-127v125h127v-125zM250 1000h-126v125h126v-125z" />
<glyph unicode="&#xd0;" horiz-adv-x="750" d="M0 500h118v380h382v-61h59v-63h-59v-1h125v-632h-66v-54h-59v-72h-382v378h-118v125zM250 500h125v-125h-125v-245h243v618h-243v-248z" />
<glyph unicode="&#xd1;" d="M127 0h-127v867h127v-188h62v-62h63v-125h122v375h126v-867h-126v301h-63v63h-62v62h-63v63h-59v-489zM250 1125h-125v-125h-125v250h250v-125h125v125h125v-250h-250v125z" />
<glyph unicode="&#xd2;" d="M118 64h-59v58h-59v632h59v60h59v65h257v-65h59v-60h66v-632h-66v-58h-59v-68h-257v68zM125 129h243v618h-243v-618zM125 1250h125v-125h125v-125h-125v125h-125v125z" />
<glyph unicode="&#xd3;" d="M118 64h-59v58h-59v632h59v60h59v65h257v-65h59v-60h66v-632h-66v-58h-59v-68h-257v68zM125 129h243v618h-243v-618zM250 1000h-125v125h125v-125zM250 1250h125v-125h-125v125z" />
<glyph unicode="&#xd4;" d="M118 64h-59v58h-59v632h59v60h59v65h257v-65h59v-60h66v-632h-66v-58h-59v-68h-257v68zM125 129h243v618h-243v-618zM375 1125h125v-125h-125v125h-125v125h125v-125zM250 1125v-125h-125v125h125z" />
<glyph unicode="&#xd5;" d="M118 64h-59v58h-59v632h59v60h59v65h257v-65h59v-60h66v-632h-66v-58h-59v-68h-257v68zM125 129h243v618h-243v-618zM250 1125h-125v-125h-125v250h250v-125h125v125h125v-250h-250v125z" />
<glyph unicode="&#xd6;" d="M118 64h-59v58h-59v632h59v60h59v65h257v-65h59v-60h66v-632h-66v-58h-59v-68h-257v68zM125 129h243v618h-243v-618zM375 1125h125v-125h-125v125zM0 1125h125v-125h-125v125z" />
<glyph unicode="&#xd7;" horiz-adv-x="750" d="M500 125h-125v125h-125v125h-125v125h-125v125h125v-125h125v-125h125v-125h125v-125h125v-125h-125v125zM500 625h125v-125h-125v125zM125 250h125v-125h-125v125zM375 500h125v-125h-125v125zM0 125h125v-125h-125v125z" />
<glyph unicode="&#xd8;" d="M434 122v-53h-59v-73h-257v73h-59v53h-59v632h59v65h59v60h257v-60h59v-63h-59v-2h125v-632h-66zM125 129h243v368h-118v-125h-125v-243zM184 569h59v60h125v118h-243v-243h59v65z" />
<glyph unicode="&#xd9;" d="M500 122h-59v-61h-59v-65h-257v65h-59v61h-66v3h7v754h125v-750h243v750h125v-757zM132 1250h125v-125h125v-125h-125v125h-125v125z" />
<glyph unicode="&#xda;" d="M434 122v-61h-59v-65h-257v65h-59v61h-59v757h125v-750h243v750h132v-757h-66zM250 1000h-125v125h125v-125zM250 1250h125v-125h-125v125z" />
<glyph unicode="&#xdb;" d="M434 122v-61h-59v-65h-257v65h-59v61h-59v757h125v-750h243v750h132v-757h-66zM125 1250h250v-125h125v-125h-125v125h-250v125zM0 1125h125v-125h-125v125z" />
<glyph unicode="&#xdc;" d="M434 122v-61h-59v-65h-257v65h-59v61h-59v757h125v-750h243v750h132v-757h-66zM375 1125h125v-125h-125v125zM0 1125h125v-125h-125v125z" />
<glyph unicode="&#xdd;" d="M62 500h-62v379h125v-379h243v379h132v-757h-66v-58h-59v-68h-375v129h375v250h-250v68h-63v57zM250 1250h125v-125h-125v125zM250 1000h-125v125h125v-125z" />
<glyph unicode="&#xde;" d="M375 125h-250v-125h-125v875h125v-125h250v-75h42v-50h83v-375h-63v-53h-62v-72zM375 625h-250v-375h250v375z" />
<glyph unicode="&#xdf;" d="M434 122v-58h-59v-68h-132v133h125v243h-125v132h125v243h-243v-751h-125v758h59v60h59v65h257v-65h59v-60h66v-257h-125v-118h125v-257h-66z" />
<glyph unicode="&#xe0;" d="M118 64h-59v58h-59v382h59v60h59v65h382v-633h-382v68zM125 129h243v368h-243v-368zM125 1000h125v-125h125v-125h-125v125h-125v125z" />
<glyph unicode="&#xe1;" d="M118 64h-59v58h-59v382h59v60h59v65h382v-633h-382v68zM125 129h243v368h-243v-368zM250 750h-125v125h125v-125zM250 1000h125v-125h-125v125z" />
<glyph unicode="&#xe2;" d="M118 64h-59v58h-59v382h59v60h59v65h382v-633h-382v68zM125 129h243v368h-243v-368zM375 875h125v-125h-125v125h-125v125h125v-125zM250 875v-125h-125v125h125z" />
<glyph unicode="&#xe3;" d="M118 64h-59v58h-59v382h59v60h59v65h382v-633h-382v68zM250 875h-125v-125h-125v250h250v-125h125v125h125v-250h-250v125zM125 129h243v368h-243v-368z" />
<glyph unicode="&#xe4;" d="M118 64h-59v58h-59v382h59v60h59v65h382v-633h-382v68zM125 129h243v368h-243v-368zM375 875h125v-125h-125v125zM0 875h125v-125h-125v125z" />
<glyph unicode="&#xe5;" d="M118 66h-59v56h-59v382h59v62h59v63h382v-633h-382v70zM434 872v-56h-59v-69h-132v69h-59v56h-66v132h66v62h59v63h132v-63h59v-62h66v-132h-66zM125 129h243v368h-243v-368zM250 879h118v118h-118v-118z" />
<glyph unicode="&#xe6;" horiz-adv-x="1000" d="M875 129v-129h-125v-4h-632v126h-3v-58h-62v58h-53v382h53v60h65v65h632v-65h53v-60h72v-257h-375v-118h375zM125 129h243v368h-243v-368zM500 497v-118h243v118h-243z" />
<glyph unicode="&#xe7;" d="M311 -125v-60h-61v-65h-125v125h125v121h-132v63h-62v62h62v1h-118v382h56v55h62v70h257v-70h56v-55h69v-132h-132v125h-243v-368h243v125h132v-132h-69v-63h-56v-184h-64z" />
<glyph unicode="&#xe8;" d="M500 129v-129h-125v-4h-257v68h-59v58h-59v382h59v60h59v65h257v-65h59v-60h66v-257h-375v-118h375zM125 1000h125v-125h125v-125h-125v125h-125v125zM125 497v-118h243v118h-243z" />
<glyph unicode="&#xe9;" d="M500 129v-129h-125v-4h-257v68h-59v58h-59v382h59v60h59v65h257v-65h59v-60h66v-257h-375v-118h375zM125 497v-118h243v118h-243zM250 750h-125v125h125v-125zM250 1000h125v-125h-125v125z" />
<glyph unicode="&#xea;" d="M500 129v-129h-125v-4h-257v68h-59v58h-59v382h59v60h59v65h257v-65h59v-60h66v-257h-375v-118h375zM375 875h-125v125h125v-125h125v-125h-125v125zM125 497v-118h243v118h-243zM125 875h125v-125h-125v125z" />
<glyph unicode="&#xeb;" d="M500 129v-129h-125v-4h-257v68h-59v58h-59v382h59v60h59v65h257v-65h59v-60h66v-257h-375v-118h375zM125 497v-118h243v118h-243zM375 875h125v-125h-125v125zM0 875h125v-125h-125v125z" />
<glyph unicode="&#xec;" horiz-adv-x="250" d="M125 0h-125v627h125v-627zM2 877h123v-128h-127v125h-123v128h127v-125z" />
<glyph unicode="&#xed;" horiz-adv-x="250" d="M125 0h-125v627h125v-627zM127 750h-2v-1h-125v128h124v125h126v-128h-123v-124z" />
<glyph unicode="&#xee;" horiz-adv-x="500" d="M250 0h-125v627h125v-627zM127 750h-127v127h123v123h129v-123h123v-127h-126v124h-122v-124z" />
<glyph unicode="&#xef;" horiz-adv-x="500" d="M252 0h-129v627h129v-627zM127 750h-127v125h127v-125zM375 750h-126v125h126v-125z" />
<glyph unicode="&#xf0;" d="M375 549h48v-49h77v-375h-63v-52h-62v-73h-250v73h-59v52h-66v250h66v64h59v61h75v43h50v82h-250v125h125v125h125v-125h250v-125h-125v-76zM125 375v-250h250v375h-125v-125h-125z" />
<glyph unicode="&#xf1;" d="M375 559h61v-55h64v-508h-132v501h-243v-501h-125v633h375v-70zM250 875h-125v-125h-125v250h250v-125h125v125h125v-250h-250v125z" />
<glyph unicode="&#xf2;" d="M0 122v382h61v60h57v65h257v-65h61v-60h64v-382h-64v-58h-61v-68h-257v68h-57v58h-61zM125 129h243v368h-243v-368zM125 1000h125v-125h125v-125h-125v125h-125v125z" />
<glyph unicode="&#xf3;" d="M118 64h-57v58h-61v382h61v60h57v65h257v-65h61v-60h64v-382h-64v-58h-61v-68h-257v68zM125 129h243v368h-243v-368zM250 750h-125v125h125v-125zM250 1000h125v-125h-125v125z" />
<glyph unicode="&#xf4;" d="M382 0h-257v64h-57v58h-68v3h7v379h61v60h57v61h257v-61h61v-60h57v-382h-57v-58h-61v-64zM375 125v375h-250v-375h250zM382 875h118v-125h-118v125h-125v125h125v-125zM257 875v-125h-125v125h125z" />
<glyph unicode="&#xf5;" d="M118 64h-57v58h-61v382h61v60h57v65h257v-65h61v-60h64v-382h-64v-58h-61v-68h-257v68zM250 875h-125v-125h-125v250h250v-125h125v125h125v-250h-250v125zM125 129h243v368h-243v-368z" />
<glyph unicode="&#xf6;" d="M118 64h-57v58h-61v382h61v60h57v65h257v-65h61v-60h64v-382h-64v-58h-61v-68h-257v68zM125 129h243v368h-243v-368zM375 875h125v-125h-125v125zM0 875h125v-125h-125v125z" />
<glyph unicode="&#xf7;" horiz-adv-x="750" d="M0 500h625v-125h-625v125zM250 750h125v-125h-125v125zM250 250h125v-125h-125v125z" />
<glyph unicode="&#xf8;" d="M118 64h-59v58h-59v382h59v60h59v65h257v-65h59v-60h66v-382h-66v-58h-59v-68h-257v68zM125 129h243v243h-118v-125h-125v-118zM125 497v-118h118v118h-118z" />
<glyph unicode="&#xf9;" d="M118 64h-57v58h-61v507h125v-500h243v500h132v-633h-382v68zM125 1000h125v-125h125v-125h-125v125h-125v125z" />
<glyph unicode="&#xfa;" d="M118 64h-57v58h-61v507h125v-500h243v500h132v-633h-382v68zM250 750h-125v125h125v-125zM250 1000h125v-125h-125v125z" />
<glyph unicode="&#xfb;" d="M118 64h-57v58h-61v507h125v-500h243v500h132v-633h-382v68zM375 875h125v-125h-125v125h-125v125h125v-125zM250 875v-125h-125v125h125z" />
<glyph unicode="&#xfc;" d="M118 64h-57v58h-61v507h125v-500h243v500h132v-633h-382v68zM375 875h125v-125h-125v125zM0 875h125v-125h-125v125z" />
<glyph unicode="&#xfd;" d="M434 -129v-57h-59v-68h-257v132h250v118h-250v68h-59v58h-59v507h125v-500h243v500h132v-758h-66zM250 750h-125v125h125v-125zM250 1000h125v-125h-125v125z" />
<glyph unicode="&#xfe;" d="M375 0h-250v-250h-125v1125h125v-250h250v-63h60v-62h65v-375h-68v-52h-57v-73zM375 125v375h-250v-375h250z" />
<glyph unicode="&#xff;" d="M434 -129v-57h-59v-68h-257v132h250v118h-250v68h-59v58h-59v507h125v-500h243v500h132v-758h-66zM375 875h125v-125h-125v125zM0 875h125v-125h-125v125z" />
<glyph unicode="&#x152;" horiz-adv-x="1000" d="M118 64h-58v58h-60v632h60v60h58v65h757v-132h-375v-243h250v-132h-250v-243h375v-133h-757v68zM125 129h243v618h-243v-618z" />
<glyph unicode="&#x153;" horiz-adv-x="1000" d="M875 129v-129h-125v-4h-257v126h-3v-58h-115v-68h-257v126h-3v-58h-62v58h-53v382h53v60h65v65h257v-65h118v65h257v-65h53v-60h72v-257h-375v-118h375zM368 497h-243v-368h243v368zM500 497v-118h243v118h-243z" />
<glyph unicode="&#x178;" d="M65 500h-65v379h125v-379h243v379h132v-757h-66v-58h-59v-68h-375v129h375v250h-250v65h-60v60zM0 1125h125v-125h-125v125zM375 1125h125v-125h-125v125z" />
<glyph unicode="&#x2c6;" horiz-adv-x="500" d="M250 875h-125v125h125v-125h125v-125h-125v125zM0 875h125v-125h-125v125z" />
<glyph unicode="&#x2dc;" d="M375 1000h125v-250h-250v125h-125v-125h-125v250h250v-125h125v125z" />
<glyph unicode="&#x2000;" horiz-adv-x="626" />
<glyph unicode="&#x2001;" horiz-adv-x="1252" />
<glyph unicode="&#x2002;" horiz-adv-x="626" />
<glyph unicode="&#x2003;" horiz-adv-x="1252" />
<glyph unicode="&#x2004;" horiz-adv-x="417" />
<glyph unicode="&#x2005;" horiz-adv-x="313" />
<glyph unicode="&#x2006;" horiz-adv-x="208" />
<glyph unicode="&#x2007;" horiz-adv-x="208" />
<glyph unicode="&#x2008;" horiz-adv-x="156" />
<glyph unicode="&#x2009;" horiz-adv-x="250" />
<glyph unicode="&#x200a;" horiz-adv-x="69" />
<glyph unicode="&#x2010;" horiz-adv-x="500" d="M375 375h-375v124h375v-124z" />
<glyph unicode="&#x2011;" horiz-adv-x="500" d="M375 375h-375v124h375v-124z" />
<glyph unicode="&#x2013;" horiz-adv-x="750" d="M0 374v128h377v-2h248v-125h-248v-1h-377z" />
<glyph unicode="&#x2014;" horiz-adv-x="1000" d="M0 374v128h502v-2h373v-125h-373v-1h-502z" />
<glyph unicode="&#x2018;" horiz-adv-x="375" d="M59 565v57h-59v257h125v-250h125v-132h-132v68h-59z" />
<glyph unicode="&#x2019;" horiz-adv-x="375" d="M125 564v-67h-125v132h118v250h132v-257h-66v-58h-59z" />
<glyph unicode="&#x201a;" horiz-adv-x="375" d="M184 -129v-52h-59v-69h-125v128h118v247h132v-254h-66z" />
<glyph unicode="&#x201c;" d="M250 625v252h127v-250h123v-127h-126v65h-60v59h-62v-124h-128v65h-60v59h-64v253h125v-252h125z" />
<glyph unicode="&#x201d;" d="M375 625v252h125v-253h-64v-60h-59v-64h-128v124h-63v-60h-59v-64h-127v127h124v250h126v-252h125z" />
<glyph unicode="&#x201e;" d="M382 -250h-125v121h-66v-52h-59v-69h-132v128h125v247h132v-250h125v250h118v-250h-57v-55h-61v-70z" />
<glyph unicode="&#x2022;" d="M0 500h125v125h250v-125h125v-250h-125v-125h-250v125h-125v250z" />
<glyph unicode="&#x2026;" horiz-adv-x="750" d="M0 125h125v-125h-125v125zM500 125h125v-125h-125v125zM250 125h125v-125h-125v125z" />
<glyph unicode="&#x202f;" horiz-adv-x="250" />
<glyph unicode="&#x2039;" horiz-adv-x="375" d="M85 250h-85v250h85v33h40v92h125v-125h-125v-250h125v-125h-125v86h-40v39z" />
<glyph unicode="&#x203a;" horiz-adv-x="375" d="M0 250h125v250h-125v125h125v-85h39v-40h86v-250h-83v-54h-42v-71h-125v125z" />
<glyph unicode="&#x205f;" horiz-adv-x="313" />
<glyph unicode="&#x20ac;" horiz-adv-x="750" d="M500 125v125h-1v2h1v-2h125v-126h-61v-63h-62v-61h-253v61h-63v63h-62v125h-124v128h124v122h-124v128h124v125h62v62h63v61h253v-61h62v-62h61v-127h-126v44h1v81h-80v-1h-168v-122h125v-2h-2v-126h-123v-122h123v-127h2v-1h-125v-122h165v-2h83z" />
<glyph unicode="&#x2122;" horiz-adv-x="1125" d="M440 750v61h59v66h128v-66h59v-59h63v125h128v-66h59v-59h64v-252h-125v250h-125v-250h-125v250h-125v-250h-125v250h65zM250 750v-250h-125v250h-125v127h375v-127h-125z" />
</font>
</defs>
</svg>
